<svg xmlns="http://www.w3.org/2000/svg">
<defs>
<font id="CaviarDreams-Bold" horiz-adv-x="548" >
  <font-face 
    font-family="Caviar Dreams"
    font-weight="700"
    font-stretch="normal"
    units-per-em="2048"
    panose-1="2 11 8 2 2 2 4 2 5 4"
    ascent="1638"
    descent="-410"
    x-height="1029"
    cap-height="1600"
    bbox="-401 -584 2198 2009"
    underline-thickness="150"
    underline-position="-142"
    unicode-range="U+0020-FB05"
  />
<missing-glyph horiz-adv-x="1835" 
d="M942 291q0 22 -4 22h-21v-32h19v10h6zM1481 819q0 23 -6 23h-21v-31h19v8h8zM1104 1268q8 0 14 10q10 14 10 39q-2 22 -10 37q-8 10 -16 10q-10 0 -17 -10q-10 -13 -10 -37q2 -25 10 -37q9 -12 19 -12zM1456 930q12 0 19 10q8 12 8 39q0 22 -10 37q-7 10 -17 10t-16 -10
q-8 -15 -8 -37q0 -25 10 -39q6 -10 14 -10zM377 557q12 0 18 10q8 15 8 39q0 25 -10 37q-6 10 -16 10q-12 0 -19 -10q-8 -10 -8 -37q0 -24 10 -37q7 -12 17 -12zM754 229q10 15 10 39q0 25 -8 37q-8 10 -19 10q-10 0 -18 -10q-8 -12 -8 -37q0 -26 8 -39q6 -10 16 -10t19 10z
M401 811q0 20 -6 20h-20v-30h18v10h8zM958 291v-41h-22v10h-19v-35q0 -8 15 -8v-16h-64v16q13 0 13 4v92q0 4 -13 4v17h101v-43h-11zM1294 315h-8v19h49v-19q-10 0 -12 -6l-29 -51v-37q0 -4 13 -4v-16h-60v16q13 0 13 4v37l-29 51q-4 6 -12 6v19h57v-19h-8l12 -26zM580 1366
h-7v18h45v-18q-8 0 -12 -6l-24 -53v-37q0 -4 12 -4v-17h-64v17q15 0 15 4v37l-31 53q-2 6 -8 6v18h53v-18h-8l16 -29zM395 1196h-8v18h47v-18q-8 0 -10 -6l-29 -51v-37q0 -4 13 -4v-19h-62v19q12 0 12 4v37l-26 51q-4 6 -13 6v18h56v-18h-8l14 -29zM1497 819v-39h-24v8h-19
v-32q0 -8 14 -8v-19h-61v19q12 0 12 4v90q0 4 -12 4v18h100v-45h-10zM1475 485h-9v19h50v-19q-11 0 -13 -6l-28 -51v-37q0 -4 12 -4v-16h-60v16q13 0 13 4v37l-29 51q-4 6 -12 6v19h55v-19h-6l12 -26zM350 1319v-47q0 -4 19 -4v-19h-56v19q11 0 11 4v82q0 12 -11 12v18h29
l59 -69v47q0 4 -16 4v18h55v-18q-10 0 -10 -4v-113h-18zM696 1384l43 -86l35 86h41v-18q-10 0 -10 -12v-82q0 -4 10 -4v-19h-53v19q6 0 6 2v30l-20 -51h-25l-27 54v-31q0 -4 9 -4v-19h-46v19q9 0 9 4v82q0 12 -9 12v18h37zM1167 1317q0 -29 -16 -49q-16 -21 -47 -21

<glyph glyph-name=".notdef" horiz-adv-x="1835" 
d="M942 291q0 22 -4 22h-21v-32h19v10h6zM1481 819q0 23 -6 23h-21v-31h19v8h8zM1104 1268q8 0 14 10q10 14 10 39q-2 22 -10 37q-8 10 -16 10q-10 0 -17 -10q-10 -13 -10 -37q2 -25 10 -37q9 -12 19 -12zM1456 930q12 0 19 10q8 12 8 39q0 22 -10 37q-7 10 -17 10t-16 -10
q-8 -15 -8 -37q0 -25 10 -39q6 -10 14 -10zM377 557q12 0 18 10q8 15 8 39q0 25 -10 37q-6 10 -16 10q-12 0 -19 -10q-8 -10 -8 -37q0 -24 10 -37q7 -12 17 -12zM754 229q10 15 10 39q0 25 -8 37q-8 10 -19 10q-10 0 -18 -10q-8 -12 -8 -37q0 -26 8 -39q6 -10 16 -10t19 10z
M401 811q0 20 -6 20h-20v-30h18v10h8zM958 291v-41h-22v10h-19v-35q0 -8 15 -8v-16h-64v16q13 0 13 4v92q0 4 -13 4v17h101v-43h-11zM1294 315h-8v19h49v-19q-10 0 -12 -6l-29 -51v-37q0 -4 13 -4v-16h-60v16q13 0 13 4v37l-29 51q-4 6 -12 6v19h57v-19h-8l12 -26zM580 1366
h-7v18h45v-18q-8 0 -12 -6l-24 -53v-37q0 -4 12 -4v-17h-64v17q15 0 15 4v37l-31 53q-2 6 -8 6v18h53v-18h-8l16 -29zM395 1196h-8v18h47v-18q-8 0 -10 -6l-29 -51v-37q0 -4 13 -4v-19h-62v19q12 0 12 4v37l-26 51q-4 6 -13 6v18h56v-18h-8l14 -29zM1497 819v-39h-24v8h-19
v-32q0 -8 14 -8v-19h-61v19q12 0 12 4v90q0 4 -12 4v18h100v-45h-10zM1475 485h-9v19h50v-19q-11 0 -13 -6l-28 -51v-37q0 -4 12 -4v-16h-60v16q13 0 13 4v37l-29 51q-4 6 -12 6v19h55v-19h-6l12 -26zM350 1319v-47q0 -4 19 -4v-19h-56v19q11 0 11 4v82q0 12 -11 12v18h29
l59 -69v47q0 4 -16 4v18h55v-18q-10 0 -10 -4v-113h-18zM696 1384l43 -86l35 86h41v-18q-10 0 -10 -12v-82q0 -4 10 -4v-19h-53v19q6 0 6 2v30l-20 -51h-25l-27 54v-31q0 -4 9 -4v-19h-46v19q9 0 9 4v82q0 12 -9 12v18h37zM1167 1317q0 -29 -16 -49q-16 -21 -47 -21
q-35 0 -51 21q-17 20 -17 49t17 47q16 20 49 20t49 -20q16 -18 16 -47zM1251 1319v-47q0 -4 19 -4v-19h-58v19q9 0 9 4v82q0 12 -9 12v18h31l57 -69v47q0 4 -16 4v18h55v-18q-8 0 -8 -4v-113h-22zM1511 1384v-45h-26q0 23 -6 23h-4v-90q0 -4 12 -4v-19h-60v19q13 0 13 4v90
h-4q-7 0 -7 -23h-26v45h108zM917 1309v-33q0 -8 15 -8v-19h-64v19q13 0 13 4v90q0 4 -13 4v18h101v-45h-27q0 23 -4 23h-21v-33h19v8h22v-37h-22v9h-19zM1432 268v-47q0 -4 18 -4v-16h-57v16q10 0 10 4v82q0 12 -10 12v19h30l58 -70v47q0 4 -17 4v19h58v-19q-11 0 -11 -4
v-110h-20zM1417 684l41 -86l37 86h41v-18q-8 0 -8 -13v-82q0 -4 8 -4v-16h-55v16q10 0 10 2v29l-25 -47h-22l-27 51v-31q0 -4 8 -4v-16h-47v16q8 0 8 4v82q0 13 -8 13v18h39zM1522 977q0 -29 -15 -47q-16 -21 -51 -21q-33 0 -47 19q-16 20 -16 49q0 31 14 49q16 21 47 21
q37 0 53 -21q15 -18 15 -49zM1432 1157v-45q0 -4 18 -4v-18h-57v18q10 0 10 4v82q0 12 -10 12v19h30l58 -72v49q0 4 -17 4v19h58v-19q-11 0 -11 -4v-112h-20zM430 336v-43h-25q0 20 -6 20h-4v-90q0 -4 13 -4v-16h-62v16q12 0 12 4v90h-4q-6 0 -6 -20h-24v43h106zM338 1034
l41 -84l37 84h39v-16q-9 0 -9 -14v-82q0 -4 9 -4v-19h-54v19q11 0 11 4v28l-25 -51h-25l-24 53v-30q0 -4 6 -4v-19h-45v19q8 0 8 4v82q0 14 -8 14v16h39zM440 606q0 -31 -12 -49q-16 -18 -51 -18t-47 18q-17 18 -17 49t15 47q14 21 47 21q37 0 53 -21q12 -16 12 -47z
M350 428v-45q0 -4 19 -4v-19h-56v19q11 0 11 4v82q0 10 -11 10v19h29l59 -70v47q0 4 -16 4v19h55v-19q-10 0 -10 -4v-111h-18zM1061 334l43 -84l37 84h39v-17q-9 0 -9 -14v-82q0 -4 9 -4v-16h-54v16q9 0 9 4v29l-23 -49h-22l-27 51v-31q0 -4 8 -4v-16h-47v16q8 0 8 4v82
q0 14 -8 14v17h37zM686 315q16 21 51 21q31 0 49 -21q15 -16 15 -49q0 -28 -17 -49q-16 -16 -49 -16t-49 18q-14 19 -14 47q0 33 14 49zM537 268v-47q0 -4 18 -4v-16h-55v16q8 0 8 4v82q0 14 -8 14v17h28l60 -70v49q0 4 -19 4v17h56v-17q-11 0 -11 -4v-112h-18zM418 811v-41
h-25v8h-18v-33q0 -8 14 -8v-16h-61v16q12 0 12 4v90q0 5 -12 5v18h100v-43h-10z" />
    <glyph glyph-name=".null" horiz-adv-x="200" 
 />
    <glyph glyph-name="nonmarkingreturn" horiz-adv-x="708" 
 />
    <glyph glyph-name="space" unicode=" " horiz-adv-x="708" 
 />
    <glyph glyph-name="space" unicode="&#xa0;" horiz-adv-x="708" 
 />
    <glyph glyph-name="exclam" unicode="!" horiz-adv-x="541" 
d="M372.5 235q42.5 -42 42.5 -102q0 -62 -42.5 -104t-102.5 -42q-59 0 -102 42t-43 104q0 60 43 102t102 42q60 0 102.5 -42zM372 1600v-1145h-207v1145h207z" />
    <glyph glyph-name="quotedbl" unicode="&#x22;" horiz-adv-x="574" 
d="M25 920v677h207v-677h-207zM342 920v677h207v-677h-207z" />
    <glyph glyph-name="numbersign" unicode="#" horiz-adv-x="1705" 
d="M873 1033h84l102 410h211l-102 -410h411l-53 -207h-410l-22 -88h411l-53 -207h-410l-102 -411h-211l102 411h-84l-102 -411h-212l103 411h-411l53 207h410l22 88h-411l53 207h410l102 410h211zM905 826h-84l-22 -88h84z" />
    <glyph glyph-name="dollar" unicode="$" horiz-adv-x="958" 
d="M571 117v-117h-184v117q-119 22 -210 103q-99 88 -127 255l212 68q17 -146 69 -192q26 -23 56 -37v414q-115 43 -209 126q-124 109 -124 263t125 265q90 80 208 102v116h184v-116q119 -22 210 -103q99 -88 127 -255l-212 -68q-17 146 -69 192q-26 23 -56 37v-414
q115 -43 209 -126q124 -109 124 -263t-124 -264q-91 -81 -209 -103zM387 946v341q-29 -13 -54 -35q-62 -55 -62 -135q0 -78 60 -132q23 -20 56 -39zM571 655v-341q29 13 55 36q61 54 61 134q0 78 -60 132q-23 20 -56 39z" />
    <glyph glyph-name="percent" unicode="%" horiz-adv-x="1263" 
d="M1176 1290l-918 -1311l-170 118l917 1310zM549.5 1164.5q80.5 -80.5 80.5 -194.5t-80.5 -194.5t-194.5 -80.5t-194.5 80.5t-80.5 194.5t80.5 194.5t194.5 80.5t194.5 -80.5zM355 1040q-29 0 -49.5 -20.5t-20.5 -49.5q0 -30 20.5 -50.5t49.5 -20.5t50 20.5t21 50.5
q0 29 -21 49.5t-50 20.5zM1103.5 611.5q80.5 -80.5 80.5 -194.5q0 -115 -80.5 -195.5t-195.5 -80.5q-114 0 -194.5 80.5t-80.5 195.5q0 114 80.5 194.5t194.5 80.5q115 0 195.5 -80.5zM908 487q-29 0 -49.5 -20.5t-20.5 -49.5q0 -30 20.5 -50.5t49.5 -20.5t50 20.5t21 50.5
q0 29 -21 49.5t-50 20.5z" />
    <glyph glyph-name="ampersand" unicode="&#x26;" horiz-adv-x="1340" 
d="M1240 621q10 -36 10 -70q0 -67 -35 -127q-54 -95 -176 -131q-22 -73 -112 -163q-146 -147 -353 -147q-206 0 -352.5 146.5t-146.5 353.5q0 205 143 358q86 84 158 93q-155 156 -155 311q0 153 109.5 263t264.5 110t265 -109q62 -60 104 -191l-188 -74q-34 92 -62 120
q-49 48 -119 48q-69 0 -118 -48.5t-49 -118.5q0 -71 51.5 -126t95 -72t177.5 -18v-199l-122 -1q-177 -35 -263.5 -129.5t-86.5 -216.5t86 -208t208 -86q121 0 260 142q-28 23 -99 97q-26 24 -41 34q-14 9 -23 9h-1q-10 -1 -14 -11q-2 -4 -2 -8q0 -7 4 -15l-170 -115
q-21 31 -32 70q-8 31 -8 61q0 57 30 110q47 81 136 105q31 9 62 9q57 0 109 -30q44 -25 100.5 -93.5t105.5 -74.5q7 -1 13 -1q38 0 54 35q4 9 4 19q0 32 -46 70l102 177q93 -54 122 -158z" />
    <glyph glyph-name="quotesingle" unicode="'" horiz-adv-x="458" 
d="M125 920v677h207v-677h-207z" />
    <glyph glyph-name="parenleft" unicode="(" horiz-adv-x="788" 
d="M688 1524q-147 -68 -238 -182q-154 -194 -154 -542q0 -349 154 -542q91 -115 238 -186v-205q-254 88 -386 254q-202 252 -202 679t202 679q132 166 386 254v-209z" />
    <glyph glyph-name="parenright" unicode=")" horiz-adv-x="788" 
d="M100 1733q254 -88 386 -254q202 -252 202 -679t-202 -679q-132 -166 -386 -254v205q147 71 238 186q154 193 154 542q0 348 -154 542q-91 114 -238 182v209z" />
    <glyph glyph-name="asterisk" unicode="*" horiz-adv-x="932" 
d="M569 1428l144 110l119 -170l-186 -140l186 -139l-119 -170l-144 110v-169h-207v170l-145 -111l-119 170l186 139l-186 140l119 170l145 -111v170h207v-169z" />
    <glyph glyph-name="plus" unicode="+" horiz-adv-x="1112" 
d="M452 505h-327v207h327v327h208v-327h327v-207h-327v-328h-208v328z" />
    <glyph glyph-name="comma" unicode="," horiz-adv-x="537" 
d="M438 278l-231 -480h-197l128 480h300z" />
    <glyph glyph-name="hyphen" unicode="-" horiz-adv-x="919" 
d="M125 712h668v-207h-668v207z" />
    <glyph glyph-name="hyphen" unicode="&#xad;" horiz-adv-x="919" 
d="M125 712h668v-207h-668v207z" />
    <glyph glyph-name="period" unicode="." horiz-adv-x="490" 
d="M347.5 235q42.5 -42 42.5 -102q0 -62 -42.5 -104t-102.5 -42q-59 0 -102 42t-43 104q0 60 43 102t102 42q60 0 102.5 -42z" />
    <glyph glyph-name="slash" unicode="/" horiz-adv-x="855" 
d="M674 1600h231l-725 -1600h-230z" />
    <glyph glyph-name="zero" unicode="0" horiz-adv-x="1289" 
d="M1001 1032q0 147 -104.5 251t-252.5 104q-147 0 -251.5 -104t-104.5 -251v-489q0 -148 104.5 -252t251.5 -104q148 0 252.5 104t104.5 252v489zM1213 543q0 -235 -166.5 -401.5t-402.5 -166.5q-235 0 -401.5 166.5t-166.5 401.5v489q0 235 166.5 401.5t401.5 166.5
q236 0 402.5 -166.5t166.5 -401.5v-489z" />
    <glyph glyph-name="one" unicode="1" horiz-adv-x="1427" 
d="M893 1600v-1600h-207v1330h-153l210 270h150z" />
    <glyph glyph-name="two" unicode="2" horiz-adv-x="1308" 
d="M372 504.5q163 121.5 278 207.5t205.5 185t90.5 220t-85.5 206t-206.5 85q-119 0 -205 -85q-73 -73 -91 -252l-207 75q32 208 149 326q147 148 354 148q209 0 355.5 -147t146.5 -356q0 -206 -142 -359q-90 -97 -209.5 -186.5t-265.5 -199.5q-128 -95 -143 -164h760v-208
h-1003q56 383 219 504.5z" />
    <glyph glyph-name="three" unicode="3" horiz-adv-x="1308" 
d="M599 824l-125 3v205q136 2 179 18.5t94 70.5t51 124q0 69 -48 116.5t-117 47.5q-68 0 -116 -47q-27 -28 -62 -122l-193 76q43 135 105 194q111 110 266 110q158 0 268 -111t110 -264q0 -156 -185 -301q89 -6 187 -101q143 -154 143 -360q0 -208 -146.5 -355.5
t-355.5 -147.5q-207 0 -354 148q-117 118 -149 327l207 75q18 -180 91 -253q86 -85 205 -85q121 0 206.5 85t85.5 206q0 122 -85.5 215t-261.5 126z" />
    <glyph glyph-name="four" unicode="4" horiz-adv-x="1350" 
d="M854 1600h181v-961h141v-207h-141v-432h-207v432h-655zM828 1133l-295 -494h295v494z" />
    <glyph glyph-name="five" unicode="5" horiz-adv-x="1314" 
d="M450 1168q56 12 117 12q112 0 215 -36q231 -79 344 -292q71 -132 71 -272q0 -87 -27 -174q-71 -232 -284 -347q-130 -69 -269 -69q-88 0 -178 28q-186 57 -322 242l146 162q111 -164 238 -202q58 -18 113 -18q88 0 172 44q137 73 182 222q18 57 18 113q0 87 -45 172
q-74 138 -224 190q-65 23 -144 23q-107 0 -274 -53l-125 109l180 497v81h586v-207h-411z" />
    <glyph glyph-name="six" unicode="6" horiz-adv-x="1291" 
d="M292 543q0 -148 104.5 -252t252.5 -104q147 0 251.5 104t104.5 252t-104.5 252t-251.5 104q-148 0 -252.5 -104t-104.5 -252zM412 987q89 96 295 96q207 0 344 -137q166 -167 166 -403q0 -235 -166 -401.5t-402 -166.5q-235 0 -402 166q-160 161 -161 447v3
q0 283 153 498q154 216 416 511h272q-363 -376 -515 -613z" />
    <glyph glyph-name="seven" unicode="7" horiz-adv-x="1304" 
d="M894.5 995.5q-248.5 -278.5 -384.5 -471.5t-146 -524h-211q12 409 166 624.5t367 454t229 314.5h-760v207h995q-7 -326 -255.5 -604.5z" />
    <glyph glyph-name="eight" unicode="8" horiz-adv-x="1294" 
d="M647 192q158 0 243.5 85t85.5 206q0 122 -85 213q-84 92 -244 125q-161 -33 -245 -125q-84 -91 -84 -213q0 -121 85 -206t244 -85zM647 -20q-246 0 -393 147.5t-147 355.5q0 256 281 461q-135 145 -135 301q0 153 109.5 264t267.5 111h33q158 0 268 -111t110 -264
q0 -156 -146 -298q292 -208 292 -464q0 -208 -147 -355.5t-393 -147.5zM642 1408q-7 1 -12 1q-68 0 -116 -47.5t-48 -116.5q0 -70 50.5 -124t91.5 -70q22 -8 39 -11q17 3 39 11q40 16 91 70t51 124q0 69 -48 116.5t-117 47.5q-4 0 -11 -1h-10z" />
    <glyph glyph-name="nine" unicode="9" horiz-adv-x="1291" 
d="M1012 1057q0 148 -104.5 252t-252.5 104q-147 0 -251.5 -104t-104.5 -252t104.5 -252t251.5 -104q148 0 252.5 104t104.5 252zM892 613q-89 -96 -295 -96q-207 0 -344 137q-166 167 -166 403q0 235 166 401.5t402 166.5q235 0 402 -166q160 -161 161 -447v-3
q0 -283 -153 -498q-154 -216 -416 -511h-272q363 376 515 613z" />
    <glyph glyph-name="colon" unicode=":" horiz-adv-x="541" 
d="M372.5 235q42.5 -42 42.5 -102q0 -62 -42.5 -104t-102.5 -42q-59 0 -102 42t-43 104q0 60 43 102t102 42q60 0 102.5 -42zM372.5 804q42.5 -42 42.5 -102q0 -62 -42.5 -104t-102.5 -42q-59 0 -102 42t-43 104q0 60 43 102t102 42q60 0 102.5 -42z" />
    <glyph glyph-name="semicolon" unicode=";" horiz-adv-x="635" 
d="M511 278l-231 -480h-197l128 480h300zM388 804q43 -42 43 -102q0 -62 -43 -104t-102 -42q-60 0 -102.5 42t-42.5 104q0 60 42.5 102t102.5 42q59 0 102 -42z" />
    <glyph glyph-name="semicolon" unicode="&#x37e;" horiz-adv-x="635" 
d="M511 278l-231 -480h-197l128 480h300zM388 804q43 -42 43 -102q0 -62 -43 -104t-102 -42q-60 0 -102.5 42t-42.5 104q0 60 42.5 102t102.5 42q59 0 102 -42z" />
    <glyph glyph-name="less" unicode="&#x3c;" horiz-adv-x="1504" 
d="M1403 107l-1303 475l1303 474v-221l-697 -253l697 -254v-221z" />
    <glyph glyph-name="equal" unicode="=" horiz-adv-x="1112" 
d="M125 860h862v-208h-862v208zM125 564h862v-207h-862v207z" />
    <glyph glyph-name="greater" unicode="&#x3e;" horiz-adv-x="1504" 
d="M100 328l697 254l-697 253v221l1303 -474l-1303 -475v221z" />
    <glyph glyph-name="question" unicode="?" horiz-adv-x="1028" 
d="M127 1186q0 74 36 146q68 140 214 191q64 22 126 22q82 0 161 -38q140 -67 191 -212q21 -63 21 -125q0 -83 -38 -162q-63 -130 -204 -239q-96 -85 -146 -190q-30 -62 -31 -123h-206q1 108 52 212q80 167 238 286q76 75 110 144q17 37 17 73q0 27 -9 55q-24 66 -86 96
q-36 17 -72 17q-27 0 -56 -10q-66 -23 -96 -85q-9 -19 -13 -57l-209 -68v67zM518 133q0 -62 -43 -104t-102 -42q-60 0 -102.5 42t-42.5 104q0 60 42.5 102t102.5 42q59 0 102 -42t43 -102z" />
    <glyph glyph-name="at" unicode="@" horiz-adv-x="1643" 
d="M1013 515v108q-10 45 -50 85q-58 58 -139 58t-138 -58t-57 -139q0 -82 57 -139t138 -57q82 0 139 57q40 40 50 85zM822 212q-164 0 -280.5 97t-116.5 261q0 163 116.5 265t280.5 102q146 0 189 -74v52h199l-2 -498v-3q0 -52 16 -52q14 0 40 36q57 81 57 248t-126.5 293
t-372.5 126q-245 0 -370.5 -126t-125.5 -352t145.5 -371.5t350.5 -145.5q141 0 242 63l142 -149q-193 -113 -384 -113q-287 0 -492 204.5t-205 492.5q0 287 205 491.5t492 204.5q289 0 492.5 -205t203.5 -416t-109 -342q-90 -107 -199 -107q-24 0 -49 6q-139 29 -150 94
q-53 -82 -189 -82z" />
    <glyph glyph-name="A" unicode="A" horiz-adv-x="1376" 
d="M825 773l-137 375l-136 -375h273zM744 1600l582 -1600h-220l-206 566h-424l-205 -566h-221l582 1600h112z" />
    <glyph glyph-name="B" unicode="B" horiz-adv-x="1126" 
d="M474 1600q139 0 238 -98.5t99 -237.5q0 -143 -144 -177q104 -15 236.5 -148t132.5 -368t-165 -406q-155 -161 -311 -163v-2h-410v1600h324zM357 927v-719h203v3q64 4 159 103q105 108 105 257q0 147 -104.5 251.5t-251.5 104.5h-111zM357 1393v-253h135q46 4 79 35
q36 33 36 89t-37.5 92.5t-95.5 36.5h-117z" />
    <glyph glyph-name="C" unicode="C" horiz-adv-x="1642" 
d="M1388 381l155 -139q-284 -259 -601 -259q-339 0 -578 239t-239 578q0 338 239 578t578 240q317 0 601 -259l-155 -141q-214 190 -446 190q-251 0 -429.5 -178t-178.5 -430q0 -253 178.5 -431t429.5 -178q232 0 446 190z" />
    <glyph glyph-name="D" unicode="D" horiz-adv-x="1250" 
d="M357 1389v-1179q247 0 405 159q178 178 178 431q0 252 -178 431q-158 158 -405 158zM302 1600q390 -2 608 -221q239 -241 239 -579q0 -339 -239 -579q-218 -219 -608 -221h-152v1600h152z" />
    <glyph glyph-name="E" unicode="E" horiz-adv-x="1137" 
d="M1012 1600v-207h-655v-489h655v-207h-655v-489h655v-208h-862v1600h862z" />
    <glyph glyph-name="F" unicode="F" horiz-adv-x="1045" 
d="M920 1600v-207h-563v-489h563v-207h-563v-697h-207v1600h770z" />
    <glyph glyph-name="G" unicode="G" horiz-adv-x="1668" 
d="M1507 219q-247 -236 -565 -236q-339 0 -578 239t-239 578q0 338 239 578t578 240q317 0 601 -259l-155 -141q-214 190 -446 190q-251 0 -429.5 -178t-178.5 -430q0 -253 178.5 -431t429.5 -178q216 0 358 114v483h207v-569z" />
    <glyph glyph-name="H" unicode="H" horiz-adv-x="1208" 
d="M357 662v-662h-207v1600h207v-731h494v731h207v-1600h-207v662h-494z" />
    <glyph glyph-name="I" unicode="I" 
d="M377 1600v-1600h-207v1600h207z" />
    <glyph glyph-name="J" unicode="J" horiz-adv-x="937" 
d="M781 343q0 -166 -91 -258q-97 -98 -235 -98q-137 0 -233.5 97.5t-96.5 259.5l164 64q28 -152 71 -187q32 -27 86 -27h4q57 1 94 37q30 31 30 121v1248h207v-1257z" />
    <glyph glyph-name="K" unicode="K" horiz-adv-x="1206" 
d="M357 755v-755h-207v1600h207v-504l378 504h262l-491 -658l611 -942h-251l-495 772z" />
    <glyph glyph-name="L" unicode="L" horiz-adv-x="1019" 
d="M150 0v1600h207v-1392h572v-208h-779z" />
    <glyph glyph-name="M" unicode="M" horiz-adv-x="1812" 
d="M388 1600l519 -897l517 897h189v-1600h-207v1156l-499 -864l-501 864v-1156h-207v1600h189z" />
    <glyph glyph-name="N" unicode="N" horiz-adv-x="1357" 
d="M150 1600h189l660 -1142v1142h208v-1600h-181l-669 1156v-1156h-207v1600z" />
    <glyph glyph-name="O" unicode="O" horiz-adv-x="1889" 
d="M1523 1381q240 -240 240 -579t-240 -579t-579 -240t-579 240t-240 579t240 579t579 240t579 -240zM944 1412q-253 0 -431.5 -178.5t-178.5 -431.5t179 -432t431 -179q253 0 431.5 179t178.5 432t-178.5 431.5t-431.5 178.5z" />
    <glyph glyph-name="P" unicode="P" horiz-adv-x="1145" 
d="M357 512v-512h-207v1600h454q193 -26 326 -159q159 -160 159 -384q0 -226 -159 -385.5t-384 -159.5h-189zM357 1392v-672h189q138 0 236.5 98.5t98.5 238.5q0 139 -98.5 237t-236.5 98h-189z" />
    <glyph glyph-name="Q" unicode="Q" horiz-adv-x="1889" 
d="M944 1412q-253 0 -431.5 -178.5t-178.5 -431.5t179 -432t431 -179q253 0 431.5 179t178.5 432t-178.5 431.5t-431.5 178.5zM1286 55q23 -14 48 -32q70 -37 95 -45q11 -3 21 -3q17 0 34 10q26 15 34 44q3 9 7 74h209q-7 -98 -16 -130q-32 -111 -133 -167q-64 -37 -134 -37
q-39 0 -78 11q-64 17 -171 86q-86 45 -119 55q-19 5 -36 5q-30 0 -58 -16q-46 -26 -60 -78q-2 -5 -7 -66h-209q8 95 16 124q17 61 52 108q-236 45 -416 225q-240 240 -240 579t240 579t579 240t579 -240t240 -579t-240 -579q-108 -108 -237 -168z" />
    <glyph glyph-name="R" unicode="R" horiz-adv-x="1171" 
d="M357 1392v-672h189q138 0 236.5 98.5t98.5 238.5q0 139 -98.5 237t-236.5 98h-189zM546 512h-189v-512h-207v1600h454q193 -26 326 -159q159 -160 159 -384q0 -226 -159 -386q-110 -110 -168 -124l355 -547h-251z" />
    <glyph glyph-name="S" unicode="S" horiz-adv-x="1101" 
d="M557 821q-170 57 -275.5 162.5t-105.5 261.5q0 153 109.5 263t265.5 110q154 0 264 -109q62 -60 104 -191l-188 -74q-34 92 -62 120q-49 48 -118 48q-70 0 -119 -48.5t-49 -118.5t49 -119q55 -54 152 -99q188 -61 319 -192q147 -145 147 -352t-146.5 -353.5
t-352.5 -146.5q-207 0 -353 147q-117 117 -148 323l201 73q19 -177 93 -251q86 -86 207 -86t207 86t86 208q0 121 -86 207q-82 82 -201 131z" />
    <glyph glyph-name="T" unicode="T" horiz-adv-x="1054" 
d="M631 1393v-1393h-208v1393h-373v207h954v-207h-373z" />
    <glyph glyph-name="U" unicode="U" horiz-adv-x="1388" 
d="M1030 1600h208v-1127q-27 -193 -159 -326q-160 -160 -385 -160t-384.5 159.5t-159.5 384.5v1069h208v-1069q0 -138 98.5 -236.5t237.5 -98.5q140 0 238 98t98 237v1069z" />
    <glyph glyph-name="V" unicode="V" horiz-adv-x="1376" 
d="M631 0l-581 1600h220l417 -1147l418 1147h221l-583 -1600h-112z" />
    <glyph glyph-name="W" unicode="W" horiz-adv-x="1686" 
d="M739 299v1301h207v-1301q10 -17 34 -42q65 -62 154 -62t154 63.5t65 152.5v1189h208v-1197q-4 -169 -125 -290q-125 -126 -302 -126q-176 0 -291 124q-116 -124 -292 -124q-177 0 -301 126q-122 120 -125 290v1197h207v-1189q0 -89 65 -152.5t154 -63.5q90 0 154 62
q25 25 34 42z" />
    <glyph glyph-name="X" unicode="X" horiz-adv-x="1347" 
d="M50 0l503 873l-419 727h238l300 -521l302 521h238l-421 -727l505 -873h-238l-386 667l-384 -667h-238z" />
    <glyph glyph-name="Y" unicode="Y" horiz-adv-x="1414" 
d="M603 642l-553 958h238l418 -724l419 724h239l-554 -958v-642h-207v642z" />
    <glyph glyph-name="Z" unicode="Z" horiz-adv-x="1463" 
d="M954 1393h-758v207h1116l-805 -1392h760v-208h-1117z" />
    <glyph glyph-name="bracketleft" unicode="[" horiz-adv-x="659" 
d="M332 -138h202v-207h-409v1941h409v-207h-202v-1527z" />
    <glyph glyph-name="backslash" unicode="\" horiz-adv-x="853" 
d="M903 0h-230l-723 1596h231z" />
    <glyph glyph-name="bracketright" unicode="]" horiz-adv-x="659" 
d="M327 1389h-202v207h409v-1941h-409v207h202v1527z" />
    <glyph glyph-name="asciicircum" unicode="^" horiz-adv-x="1078" 
d="M623 1596l355 -615h-239l-199 345l-200 -345h-240l356 615h167z" />
    <glyph glyph-name="underscore" unicode="_" horiz-adv-x="1094" 
d="M25 96h1044v-206h-1044v206z" />
    <glyph glyph-name="grave" unicode="`" horiz-adv-x="669" 
d="M569 1128h-197l-272 279h252z" />
    <glyph glyph-name="a" unicode="a" horiz-adv-x="1401" 
d="M1042 466v152q-18 97 -96 176q-105 104 -252 104q-148 0 -252.5 -104t-104.5 -252q0 -147 104.5 -251.5t252.5 -104.5q147 0 252 104q78 79 96 176zM1042 957v72h208v-1030h-208v129q-150 -155 -348 -155q-236 0 -402.5 166.5t-166.5 402.5t166.5 402.5t402.5 166.5
q198 0 348 -154z" />
    <glyph glyph-name="b" unicode="b" horiz-adv-x="1400" 
d="M357 623v-161q19 -94 96 -171q105 -104 253 -104t252.5 104t104.5 252q0 147 -104.5 252t-252.5 105t-253 -105q-77 -77 -96 -172zM357 128v-128h-207v1600h207v-642q150 155 349 155q236 0 402.5 -167t166.5 -403t-166.5 -403t-402.5 -167q-199 0 -349 155z" />
    <glyph glyph-name="c" unicode="c" horiz-adv-x="1262" 
d="M965 353l207 -74q-76 -105 -110 -139q-167 -167 -403 -167q-235 0 -402 167t-167 403t167 403t402 167q236 0 403 -167q34 -34 110 -137l-207 -76q-40 49 -54 63q-104 104 -252 104q-147 0 -251.5 -104.5t-104.5 -252.5q0 -147 104.5 -251.5t251.5 -104.5q148 0 253 104
q13 14 53 62z" />
    <glyph glyph-name="d" unicode="d" horiz-adv-x="1401" 
d="M1043 466v153q-18 97 -97 176q-104 105 -252 105t-252.5 -105t-104.5 -252q0 -148 104.5 -252t252.5 -104t252 104q79 79 97 175zM1043 958v642h208v-1600h-208v128q-150 -155 -349 -155q-236 0 -402.5 167t-166.5 403t166.5 403t402.5 167q199 0 349 -155z" />
    <glyph glyph-name="e" unicode="e" horiz-adv-x="1262" 
d="M470 233q52 -46 189 -46q148 0 253 104q13 14 53 62l207 -74q-76 -105 -110 -139q-167 -167 -403 -167q-235 0 -402 167t-167 403t167 403t402 167q202 0 354 -122q25 -21 49 -45q10 -10 57 -63l-104 -105zM816 873q-35 27 -157 27q-147 0 -251.5 -104.5t-104.5 -252.5
q0 -121 27 -157z" />
    <glyph glyph-name="f" unicode="f" horiz-adv-x="626" 
d="M390 823v-824h-208v824h-92v207h92v185q7 128 98 220q94 88 218 88q62 0 188 -43l-69 -196q-88 37 -111 37q-42 0 -81 -35q-33 -33 -35 -79v-177h185v-207h-185z" />
    <glyph glyph-name="g" unicode="g" horiz-adv-x="1405" 
d="M1042 623q-19 95 -96 172q-104 105 -252 105t-252.5 -105t-104.5 -252q0 -148 104.5 -252.5t252.5 -104.5t252 104q77 77 96 170v163zM1043 958v71h208v-765q0 -300 -163 -463q-167 -147 -403 -147t-403 147q-34 34 -109 138l206 74q40 -48 54 -62q105 -104 252 -104
q247 0 342 324q-97 -188 -333 -188t-402.5 162t-166.5 398t166.5 402.5t402.5 166.5q199 0 349 -154z" />
    <glyph glyph-name="h" unicode="h" horiz-adv-x="1125" 
d="M150 1600h208v-682q87 167 252 167t263.5 -118.5t101.5 -297.5v-669h-207v661q0 89 -50.5 152.5t-159.5 63.5q-129 0 -200 -138v-739h-208v1600z" />
    <glyph glyph-name="i" unicode="i" horiz-adv-x="541" 
d="M374 1029v-1029h-207v1029h207zM373 1410q43 -42 43 -103t-43 -103t-103 -42q-59 0 -102 42t-43 103t43 103t102 42q60 0 103 -42z" />
    <glyph glyph-name="j" unicode="j" horiz-adv-x="561" 
d="M49 -10q112 12 112 70v969h207v-967q0 -253 -319 -278v206zM367 1410q43 -42 43 -103t-43 -103t-103 -42q-59 0 -102 42t-43 103t43 103t102 42q60 0 103 -42z" />
    <glyph glyph-name="k" unicode="k" horiz-adv-x="944" 
d="M785 1029l-279 -344l388 -685h-247l-280 513l-9 -11v-502h-208v1415h208v-582l160 196h267z" />
    <glyph glyph-name="l" unicode="l" horiz-adv-x="508" 
d="M358 1601v-1601h-208v1601h208z" />
    <glyph glyph-name="m" unicode="m" horiz-adv-x="1418" 
d="M150 1029h207v-96q60 151 231 151q170 0 191 -172q49 172 270 172q218 0 218 -265v-819h-208v724q0 152 -123 152q-51 0 -88 -36t-37 -242v-598h-207l1 724q0 152 -124 152q-51 0 -88 -36q-32 -31 -36 -164v-676h-207v1029z" />
    <glyph glyph-name="n" unicode="n" horiz-adv-x="1139" 
d="M358 753v-753h-208v1029h208v-120q65 176 261 176q167 0 265.5 -118.5t101.5 -297.5v-669h-207v661q0 89 -65 152.5t-155 63.5q-89 0 -154 -62q-36 -37 -47 -62z" />
    <glyph glyph-name="o" unicode="o" horiz-adv-x="1318" 
d="M659 1113q236 0 402.5 -167t166.5 -403t-166.5 -403t-402.5 -167q-235 0 -402 167t-167 403t167 403t402 167zM406.5 795q-104.5 -105 -104.5 -252q0 -148 104.5 -252t252.5 -104t252.5 104t104.5 252q0 147 -104.5 252t-252.5 105t-252.5 -105z" />
    <glyph glyph-name="p" unicode="p" horiz-adv-x="1375" 
d="M357 623v-161q19 -95 97 -172q104 -104 252 -104t252.5 104.5t104.5 252.5q0 147 -104.5 252t-252.5 105t-252 -105q-78 -77 -97 -172zM357 128v-474h-207v1375h207v-93q150 176 349 176q236 0 402.5 -166.5t166.5 -402.5t-166.5 -403t-402.5 -167q-199 0 -349 155z" />
    <glyph glyph-name="q" unicode="q" horiz-adv-x="1376" 
d="M1018 466v153q-18 97 -97 176q-104 105 -252 105t-252.5 -105t-104.5 -252q0 -148 104.5 -252.5t252.5 -104.5t252 104q79 79 97 176zM1018 958v71h208v-1375h-208v474q-150 -155 -349 -155q-236 0 -402.5 167t-166.5 403t166.5 402.5t402.5 166.5q199 0 349 -154z" />
    <glyph glyph-name="r" unicode="r" horiz-adv-x="693" 
d="M357 890q116 157 285 165v-215q-113 -6 -180 -73q-101 -100 -105 -238v-529h-207v1029h207v-139z" />
    <glyph glyph-name="s" unicode="s" horiz-adv-x="882" 
d="M358 221q37 -36 88 -36t87.5 36t36.5 89q0 51 -36 87q-25 25 -107 77q-112 61 -159 108q-82 82 -82 197q0 116 82 198.5t198 82.5t193 -78q55 -55 70 -123l-201 -58q-7 25 -14 33q-18 18 -48 18t-51.5 -21.5t-21.5 -51.5t21 -51q19 -18 86 -61q124 -68 180 -124
q97 -98 97 -233q0 -138 -96.5 -235.5t-234.5 -97.5q-137 0 -234 98q-67 67 -88 167l206 44q9 -46 28 -65z" />
    <glyph glyph-name="t" unicode="t" horiz-adv-x="758" 
d="M275 1029v386h207v-386h185v-207h-185v-822h-207v822h-185v207h185z" />
    <glyph glyph-name="u" unicode="u" horiz-adv-x="1162" 
d="M586 -14q-195 0 -314 119t-122 298v626h208v-618q0 -89 65 -153t162 -64q89 0 154.5 63.5t65.5 153.5v618h207v-626q-3 -179 -121 -298q-119 -119 -305 -119z" />
    <glyph glyph-name="v" unicode="v" horiz-adv-x="1188" 
d="M541 0l-491 1029h234l309 -668l310 668h234l-492 -1029h-104z" />
    <glyph glyph-name="w" unicode="w" horiz-adv-x="1418" 
d="M604 305v724h207v-707q0 -55 37 -91.5t88 -36.5q123 0 123 153v682h208v-721q-5 -132 -97 -224q-97 -98 -234 -98q-138 0 -227 96q-91 -96 -228 -96q-138 0 -235 98q-92 92 -96 224v721h207v-682q0 -153 124 -153q51 0 88 36q31 31 35 75z" />
    <glyph glyph-name="x" unicode="x" horiz-adv-x="1031" 
d="M906 1029l-272 -470l322 -559h-239l-201 346l-200 -346h-241l323 559l-271 470h239l150 -257l149 257h241z" />
    <glyph glyph-name="y" unicode="y" horiz-adv-x="1139" 
d="M403 -346h-219l274 575l-383 800h233l261 -563l261 563h232z" />
    <glyph glyph-name="z" unicode="z" horiz-adv-x="1125" 
d="M618 822h-423v207h780l-469 -821h459v-208h-815z" />
    <glyph glyph-name="braceleft" unicode="{" horiz-adv-x="941" 
d="M125 749h163q83 53 110 147q15 58 15 124q0 36 -5 73q-13 70 -13 134q0 70 16 132q35 128 152 194q74 43 156 43q22 0 97 -12v-195q-84 14 -95 14q-32 0 -63 -17q-46 -26 -60 -78q-11 -43 -11 -99q0 -25 2 -49q15 -73 15 -147q0 -86 -21 -168q-48 -170 -117 -222
q69 -47 117 -217q21 -82 21 -168q0 -74 -15 -147q-2 -24 -2 -49q0 -56 11 -99q14 -51 60 -77q33 -18 65 -18q11 0 93 10v-191q-75 -12 -97 -12q-82 0 -156 43q-117 66 -152 195q-16 62 -16 132q0 64 13 133q5 37 5 73q0 66 -15 124q-27 94 -110 147h-163v247z" />
    <glyph glyph-name="bar" unicode="|" horiz-adv-x="507" 
d="M357 1596v-1941h-207v1941h207z" />
    <glyph glyph-name="braceright" unicode="}" horiz-adv-x="941" 
d="M816 502h-163q-84 -53 -110 -147q-15 -58 -15 -124q0 -36 4 -73q14 -69 14 -133q0 -70 -17 -132q-34 -129 -151 -195q-74 -43 -156 -43q-22 0 -97 12v191q81 -10 92 -10q33 0 66 18q46 26 59 77q12 43 12 99q0 25 -2 49q-15 73 -15 147q0 86 21 168q47 170 117 217
q-70 52 -117 222q-21 82 -21 168q0 74 15 147q2 24 2 49q0 56 -12 99q-13 52 -59 78q-31 17 -63 17q-11 0 -95 -14v195q75 12 97 12q82 0 156 -43q117 -66 151 -194q17 -62 17 -132q0 -64 -13 -134q-5 -37 -5 -73q0 -66 15 -124q26 -94 110 -147h163v-247z" />
    <glyph glyph-name="asciitilde" unicode="~" horiz-adv-x="1326" 
d="M692 908q159 -92 220 -92h9q41 13 58 56q9 23 9 120l213 -33q-10 -111 -31 -165q-53 -129 -181 -172q-33 -10 -71 -10q-113 0 -287 99q-160 92 -221 92h-7q-41 -13 -59 -55q-9 -26 -12 -121l-207 33q5 110 27 165q53 129 183 172q32 10 70 10q114 0 287 -99z" />
    <glyph glyph-name="exclamdown" unicode="&#xa1;" horiz-adv-x="541" 
d="M167.5 781q-42.5 42 -42.5 102q0 62 42.5 104t102.5 42q59 0 102 -42t43 -104q0 -60 -43 -102t-102 -42q-60 0 -102.5 42zM168 -584v1145h207v-1145h-207z" />
    <glyph glyph-name="cent" unicode="&#xa2;" horiz-adv-x="1110" 
d="M639 773q43 1 120 78q10 10 50 58l199 -73q-76 -102 -103 -130q-137 -137 -266 -139v-142h-207v158q-89 16 -194 122q-139 138 -139 334q0 195 139 334q105 105 194 122v158h207v-142q129 -2 266 -139q27 -28 104 -128l-199 -75q-41 49 -51 60q-76 75 -120 76v-532z
M433 1278q-128 -88 -128 -239q0 -140 127 -242z" />
    <glyph glyph-name="sterling" unicode="&#xa3;" horiz-adv-x="1214" 
d="M575 509q0 -227 -122 -352q81 52 178 52q26 0 54 -4q128 -18 202 -18q66 0 188 31l39 -204q-139 -34 -227 -34q-89 0 -181 21q-84 18 -146 18q-52 0 -87 -12q-92 -33 -222 -99l-151 179q156 138 182 170q85 101 87 254h-219v206h173q-1 3 -41 82q-109 176 -123 340
q-2 20 -2 41q0 150 99 269q111 132 288 149q20 1 39 1q150 0 270 -99q133 -114 149 -287q4 -24 4 -47q0 -71 -48 -182l-193 65q31 89 31 126q0 11 -1 21q-8 87 -76 144q-60 50 -135 50q-11 0 -21 -1q-88 -7 -145 -75q-50 -60 -50 -134q0 -12 1 -23q8 -92 64 -211
q83 -132 107 -229h194v-206z" />
    <glyph glyph-name="currency" unicode="&#xa4;" horiz-adv-x="1214" 
d="M378 1491q74 60 229 60q156 0 229 -60l132 132l146 -147l-132 -132q61 -73 61 -229q0 -155 -61 -228l132 -132l-146 -147l-132 132q-73 -60 -229 -60q-155 0 -229 60l-131 -132l-147 147l132 132q-60 73 -60 228q0 156 60 229l-132 132l147 147zM744 1299q-59 45 -137 45
t-136 -45q-14 -10 -25 -21q-12 -12 -22 -26q-46 -59 -46 -137t46 -136q9 -13 22 -25q12 -13 25 -22q58 -45 136 -45t137 45q13 10 25 22q12 11 21 25q46 58 46 136t-46 137q-10 14 -21 26q-11 10 -25 21z" />
    <glyph glyph-name="yen" unicode="&#xa5;" horiz-adv-x="1414" 
d="M535 760l-485 840h238l418 -724l419 724h239l-486 -840h260v-208h-328v-88h328v-207h-328v-257h-207v257h-327v207h327v88h-327v208h259z" />
    <glyph glyph-name="brokenbar" unicode="&#xa6;" horiz-adv-x="507" 
d="M357 1596v-905h-207v905h207zM357 560v-905h-207v905h207z" />
    <glyph glyph-name="section" unicode="&#xa7;" horiz-adv-x="1205" 
d="M894 497h1q5 0 5 114q0 121 -85 207q-83 82 -202 131q-169 56 -270 158l-31 13h-1q-6 0 -6 -115q0 -121 86 -206q82 -83 201 -131q169 -57 271 -158zM233 1371q0 153 109.5 262.5t264.5 109.5t264 -109q62 -59 104 -190l-188 -74q-34 92 -61 120q-49 48 -119 48
q-69 0 -118 -48.5t-49 -118.5q0 -69 49 -118q55 -54 152 -99q187 -61 318 -192q146 -145 146 -351q0 -207 -133 -366q0 -152 -109 -262t-265 -110q-154 0 -264 109q-62 59 -103 190l187 74q34 -92 62 -120q49 -48 118 -48t118 48.5t49 118.5q0 69 -49 118q-54 54 -152 99
q-187 61 -318 192q-146 145 -146 351q0 207 133 366z" />
    <glyph glyph-name="dieresis" unicode="&#xa8;" horiz-adv-x="716" 
d="M272 1396q43 -42 43 -102q0 -61 -43 -103t-102 -42q-60 0 -102.5 42t-42.5 103q0 60 42.5 102t102.5 42q59 0 102 -42zM648 1396q43 -42 43 -102q0 -61 -43 -103t-102 -42q-60 0 -102.5 42t-42.5 103q0 60 42.5 102t102.5 42q59 0 102 -42z" />
    <glyph glyph-name="copyright" unicode="&#xa9;" horiz-adv-x="1433" 
d="M893 542l181 -66q-69 -96 -91 -118q-107 -108 -259 -108t-259 107.5t-107 259.5q0 151 107 258.5t259 107.5t259 -107q22 -22 91 -118l-181 -67q-37 47 -44 54q-51 51 -125 51t-126.5 -52.5t-52.5 -126.5t52.5 -126.5t126.5 -52.5t126 52q7 7 43 52zM1148 1052
q180 -180 180 -435t-180 -435t-434 -180q-255 0 -435 180t-180 435t180 435t435 180q254 0 434 -180zM714 1042q-177 0 -301.5 -124.5t-124.5 -300.5t124.5 -301t301.5 -125q176 0 300.5 125t124.5 301t-124.5 300.5t-300.5 124.5z" />
    <glyph glyph-name="ordfeminine" unicode="&#xaa;" horiz-adv-x="1019" 
d="M730 1213v91q-12 58 -63 106q-69 62 -166 62q-98 0 -167 -62.5t-69 -150.5q0 -89 69 -151.5t167 -62.5q97 0 166 62q51 48 63 106zM730 1508v43h138v-618h-138v77q-99 -93 -229 -93q-156 0 -266 100t-110 242q0 141 110 241t266 100q130 0 229 -92zM956 1347h157v-707
h-779v157h622v550z" />
    <glyph glyph-name="guillemotleft" unicode="&#xab;" horiz-adv-x="1222" 
d="M100 489l543 581v-278l-283 -303l283 -304v-280zM578 489l543 581v-278l-283 -303l283 -304v-280z" />
    <glyph glyph-name="registered" unicode="&#xae;" horiz-adv-x="1208" 
d="M809 831q4 6 27 28q96 97 96 232q0 137 -96 233l-14 14q71 -80 71 -189q0 -120 -84 -204q-44 -44 -44 -52q0 -1 3 -1h2zM562 1261v-223h44q46 0 79 32.5t33 78.5q0 47 -33 79.5t-79 32.5h-44zM562 765q21 -2 43 -2q29 0 40 -1l-64 99h-19v-96zM387 1338q-8 -7 -15 -14
q-96 -96 -96 -233q0 -135 96 -232q7 -7 15 -14v493zM605 587q-210 0 -357.5 148t-147.5 356q0 209 147.5 357t357.5 148q207 0 355 -148t148 -357q0 -208 -148 -356q-52 -52 -144 -100t-211 -48z" />
    <glyph glyph-name="macron" unicode="&#xaf;" horiz-adv-x="717" 
d="M75 1437h567v-207h-567v207z" />
    <glyph glyph-name="degree" unicode="&#xb0;" horiz-adv-x="849" 
d="M619 1515.5q80 -80.5 80 -194.5t-80 -194t-194 -80t-194.5 80t-80.5 194t80.5 194.5t194.5 80.5t194 -80.5zM425 1407q-36 0 -61 -25t-25 -61q0 -35 25 -60t61 -25q35 0 60 25t25 60q0 36 -25 61t-60 25z" />
    <glyph glyph-name="plusminus" unicode="&#xb1;" horiz-adv-x="1110" 
d="M452 207v296h-327v207h327v327h206v-327h327v-207h-327v-296h327v-207h-860v207h327z" />
    <glyph glyph-name="uni00B2" unicode="&#xb2;" horiz-adv-x="979" 
d="M259.5 907q134.5 107 207.5 158t125.5 104t52.5 112q0 58 -44.5 99t-107.5 41t-108 -41q-38 -35 -54 -173l-205 69q27 163 111 241q106 99 256 99t256 -98t106 -237q0 -137 -103 -238q-60 -61 -219 -135t-163 -137h485v-193h-730q0 222 134.5 329z" />
    <glyph glyph-name="uni00B3" unicode="&#xb3;" horiz-adv-x="979" 
d="M452 1122l-113 2v90l118 1q42 15 67 39.5t25 102.5q0 28 -20.5 46.5t-50.5 18.5q-79 0 -95 -112l-190 70q40 119 87 161q83 75 198 75q118 0 200 -76.5t82 -182.5q0 -136 -136 -166q97 -21 163.5 -87t66.5 -203q0 -138 -106 -236.5t-256 -98.5q-149 0 -256 99
q-84 78 -111 242l206 69q16 -139 54 -174q45 -41 107 -41q64 0 108 41t44 99q0 60 -46 131.5t-146 89.5z" />
    <glyph glyph-name="acute" unicode="&#xb4;" horiz-adv-x="669" 
d="M317 1407h252l-272 -279h-197z" />
    <glyph glyph-name="mu" unicode="&#xb5;" horiz-adv-x="1110" 
d="M755 81q-90 -87 -208 -87q-172 0 -190 67v-404h-207v1372h207v-720q8 -18 36 -46q65 -62 154 -62t154 64q42 41 54 84v680h205v-1027h-205v79z" />
    <glyph glyph-name="paragraph" unicode="&#xb6;" horiz-adv-x="1222" 
d="M878 1474v-1799h-207v919h-78q-224 0 -383 159t-159 384t159 384q132 132 326 159h15v1h646v-207h-41v-1799h-207v1799h-71z" />
    <glyph glyph-name="periodcentered" unicode="&#xb7;" horiz-adv-x="708" 
d="M310.366 887.744q36.124 -35.6992 36.124 -86.6973q0 -52.6982 -36.124 -88.3975t-87.1221 -35.6992q-50.1484 0 -86.6973 35.6992t-36.5488 88.3975q0 50.998 36.5488 86.6973t86.6973 35.6992q50.998 0 87.1221 -35.6992z" />
    <glyph glyph-name="periodcentered" unicode="&#x2219;" horiz-adv-x="708" 
d="M310.366 887.744q36.124 -35.6992 36.124 -86.6973q0 -52.6982 -36.124 -88.3975t-87.1221 -35.6992q-50.1484 0 -86.6973 35.6992t-36.5488 88.3975q0 50.998 36.5488 86.6973t86.6973 35.6992q50.998 0 87.1221 -35.6992z" />
    <glyph glyph-name="cedilla" unicode="&#xb8;" horiz-adv-x="418" 
d="M311 17l-23 -61q74 -38 95 -89q4 -14 7 -27t3 -26q0 -43 -31 -81q-49 -59 -144 -73q-19 -3 -44 -3q-58 0 -149 15l35 126q57 -26 93 -26q6 0 11 1q31 4 40 35q3 7 3 15q0 4 -1 8q-6 28 -92 56l48 130h149z" />
    <glyph glyph-name="uni00B9" unicode="&#xb9;" horiz-adv-x="1081" 
d="M713 1596v-1026h-208v796h-137l194 230h151z" />
    <glyph glyph-name="ordmasculine" unicode="&#xba;" horiz-adv-x="931" 
d="M466 1600q155 0 265 -100t110 -242t-110 -242t-265 -100q-156 0 -266 100t-110 242t110 242t266 100zM299 1409q-69 -63 -69 -151q0 -89 69 -151.5t167 -62.5q97 0 166 62.5t69 151.5q0 88 -69 151t-166 63q-98 0 -167 -63zM956 1347h157v-707h-779v157h622v550z" />
    <glyph glyph-name="guillemotright" unicode="&#xbb;" horiz-adv-x="1222" 
d="M100 -95v280l283 304l-283 303v278l543 -581zM578 -95v280l283 304l-283 303v278l543 -581z" />
    <glyph glyph-name="questiondown" unicode="&#xbf;" horiz-adv-x="1028" 
d="M876 -170q0 -74 -36 -146q-68 -140 -214 -191q-64 -22 -126 -22q-82 0 -161 38q-140 67 -191 212q-21 63 -21 125q0 83 38 162q63 130 204 239q96 85 146 190q30 62 31 123h206q-1 -108 -52 -212q-80 -167 -238 -286q-76 -75 -110 -144q-17 -37 -17 -73q0 -27 9 -55
q24 -66 86 -96q36 -17 72 -17q27 0 56 10q66 23 96 85q9 19 13 57l209 68v-67zM485 883q0 62 43 104t102 42q60 0 102.5 -42t42.5 -104q0 -60 -42.5 -102t-102.5 -42q-59 0 -102 42t-43 102z" />
    <glyph glyph-name="Agrave" unicode="&#xc0;" horiz-adv-x="1376" 
d="M825 773l-137 375l-136 -375h273zM744 1600l582 -1600h-220l-206 566h-424l-205 -566h-221l582 1600h112zM844 1699h-197l-272 279h252z" />
    <glyph glyph-name="Aacute" unicode="&#xc1;" horiz-adv-x="1376" 
d="M825 773l-137 375l-136 -375h273zM744 1600l582 -1600h-220l-206 566h-424l-205 -566h-221l582 1600h112zM749 1978h252l-272 -279h-197z" />
    <glyph glyph-name="Acircumflex" unicode="&#xc2;" horiz-adv-x="1376" 
d="M825 773l-137 375l-136 -375h273zM744 1600l582 -1600h-220l-206 566h-424l-205 -566h-221l582 1600h112zM778 1749l-92 82l-89 -82h-219l233 238h147l241 -238h-221z" />
    <glyph glyph-name="Atilde" unicode="&#xc3;" horiz-adv-x="1376" 
d="M825 773l-137 375l-136 -375h273zM744 1600l582 -1600h-220l-206 566h-424l-205 -566h-221l582 1600h112zM801 1888v-1q30 0 30 39q0 26 -13 69h186q-38 -220 -147 -252q-28 -8 -56 -8q-74 0 -133.5 57t-87.5 57h-4q-30 -2 -30 -39q0 -25 14 -66h-187q39 220 149 252
q28 8 56 8q73 0 135 -58t88 -58z" />
    <glyph glyph-name="Adieresis" unicode="&#xc4;" horiz-adv-x="1376" 
d="M825 773l-137 375l-136 -375h273zM744 1600l582 -1600h-220l-206 566h-424l-205 -566h-221l582 1600h112zM602 1967q43 -42 43 -102q0 -61 -43 -103t-102 -42q-60 0 -102.5 42t-42.5 103q0 60 42.5 102t102.5 42q59 0 102 -42zM978 1967q43 -42 43 -102q0 -61 -43 -103
t-102 -42q-60 0 -102.5 42t-42.5 103q0 60 42.5 102t102.5 42q59 0 102 -42z" />
    <glyph glyph-name="Aring" unicode="&#xc5;" horiz-adv-x="1376" 
d="M825 773l-137 375l-136 -375h273zM691 1738q22 0 38 15.5t16 38.5q0 28 -16 43.5t-38 15.5q-28 0 -43.5 -15.5t-15.5 -43.5q0 -23 15.5 -38.5t43.5 -15.5zM747 1592l579 -1592h-220l-206 566h-424l-205 -566h-221l579 1592q-50 14 -89 54q-62 62 -62 148q0 87 61.5 149
t149.5 62q87 0 148.5 -62t61.5 -149q0 -86 -61 -148q-40 -40 -91 -54z" />
    <glyph glyph-name="AE" unicode="&#xc6;" horiz-adv-x="1715" 
d="M1591 1600v-207h-655v-489h655v-207h-655v-489h655v-208h-862v566h-194l-242 -566h-253l689 1548v52h862zM729 1028l-110 -255h110v255z" />
    <glyph glyph-name="Ccedilla" unicode="&#xc7;" horiz-adv-x="1642" 
d="M780 -2q-236 44 -416 224q-239 239 -239 578q0 338 239 578t578 240q317 0 601 -259l-155 -141q-214 190 -446 190q-251 0 -429.5 -178t-178.5 -430q0 -253 178.5 -431t429.5 -178q232 0 446 190l155 -139q-284 -259 -601 -259h-19l-10 -27q74 -38 95 -89q4 -14 7 -27
t3 -26q0 -43 -31 -81q-49 -59 -144 -73q-19 -3 -44 -3q-58 0 -149 15l35 126q57 -26 93 -26q6 0 11 1q31 4 40 35q3 7 3 15q0 4 -1 8q-6 28 -92 56z" />
    <glyph glyph-name="Egrave" unicode="&#xc8;" horiz-adv-x="1137" 
d="M1012 1600v-207h-655v-489h655v-207h-655v-489h655v-208h-862v1600h862zM737 1699h-197l-272 279h252z" />
    <glyph glyph-name="Eacute" unicode="&#xc9;" horiz-adv-x="1137" 
d="M1012 1600v-207h-655v-489h655v-207h-655v-489h655v-208h-862v1600h862zM642 1978h252l-272 -279h-197z" />
    <glyph glyph-name="Ecircumflex" unicode="&#xca;" horiz-adv-x="1137" 
d="M1012 1600v-207h-655v-489h655v-207h-655v-489h655v-208h-862v1600h862zM671 1749l-92 82l-89 -82h-219l233 238h147l241 -238h-221z" />
    <glyph glyph-name="Edieresis" unicode="&#xcb;" horiz-adv-x="1137" 
d="M1012 1600v-207h-655v-489h655v-207h-655v-489h655v-208h-862v1600h862zM495 1967q43 -42 43 -102q0 -61 -43 -103t-102 -42q-60 0 -102.5 42t-42.5 103q0 60 42.5 102t102.5 42q59 0 102 -42zM871 1967q43 -42 43 -102q0 -61 -43 -103t-102 -42q-60 0 -102.5 42
t-42.5 103q0 60 42.5 102t102.5 42q59 0 102 -42z" />
    <glyph glyph-name="Igrave" unicode="&#xcc;" 
d="M377 1600v-1600h-207v1600h207zM430 1699h-197l-272 279h252z" />
    <glyph glyph-name="Iacute" unicode="&#xcd;" 
d="M377 1600v-1600h-207v1600h207zM334 1978h252l-272 -279h-197z" />
    <glyph glyph-name="Icircumflex" unicode="&#xce;" 
d="M377 1600v-1600h-207v1600h207zM363 1749l-92 82l-89 -82h-219l233 238h147l241 -238h-221z" />
    <glyph glyph-name="Idieresis" unicode="&#xcf;" 
d="M378 1600v-1600h-207v1600h207zM188 1967q43 -42 43 -102q0 -61 -43 -103t-102 -42q-60 0 -102.5 42t-42.5 103q0 60 42.5 102t102.5 42q59 0 102 -42zM564 1967q43 -42 43 -102q0 -61 -43 -103t-102 -42q-60 0 -102.5 42t-42.5 103q0 60 42.5 102t102.5 42q59 0 102 -42
z" />
    <glyph glyph-name="Eth" unicode="&#xd0;" horiz-adv-x="1250" 
d="M150 903v697h152q390 -2 608 -221q239 -241 239 -579q0 -339 -239 -579q-218 -219 -608 -221h-152v697h-190v206h190zM357 903h347v-206h-347v-487q247 0 405 159q178 178 178 431q0 252 -178 431q-158 158 -405 158v-486z" />
    <glyph glyph-name="Ntilde" unicode="&#xd1;" horiz-adv-x="1357" 
d="M150 1600h189l660 -1142v1142h208v-1600h-181l-669 1156v-1156h-207v1600zM791 1888v-1q30 0 30 39q0 26 -13 69h186q-38 -220 -147 -252q-28 -8 -56 -8q-74 0 -133.5 57t-87.5 57h-4q-30 -2 -30 -39q0 -25 14 -66h-187q39 220 149 252q28 8 56 8q73 0 135 -58t88 -58z
" />
    <glyph glyph-name="Ograve" unicode="&#xd2;" horiz-adv-x="1889" 
d="M1523 1381q240 -240 240 -579t-240 -579t-579 -240t-579 240t-240 579t240 579t579 240t579 -240zM944 1412q-253 0 -431.5 -178.5t-178.5 -431.5t179 -432t431 -179q253 0 431.5 179t178.5 432t-178.5 431.5t-431.5 178.5zM1100 1699h-197l-272 279h252z" />
    <glyph glyph-name="Oacute" unicode="&#xd3;" horiz-adv-x="1889" 
d="M1523 1381q240 -240 240 -579t-240 -579t-579 -240t-579 240t-240 579t240 579t579 240t579 -240zM944 1412q-253 0 -431.5 -178.5t-178.5 -431.5t179 -432t431 -179q253 0 431.5 179t178.5 432t-178.5 431.5t-431.5 178.5zM1005 1978h252l-272 -279h-197z" />
    <glyph glyph-name="Ocircumflex" unicode="&#xd4;" horiz-adv-x="1889" 
d="M1523 1381q240 -240 240 -579t-240 -579t-579 -240t-579 240t-240 579t240 579t579 240t579 -240zM944 1412q-253 0 -431.5 -178.5t-178.5 -431.5t179 -432t431 -179q253 0 431.5 179t178.5 432t-178.5 431.5t-431.5 178.5zM1034 1749l-92 82l-89 -82h-219l233 238h147
l241 -238h-221z" />
    <glyph glyph-name="Otilde" unicode="&#xd5;" horiz-adv-x="1889" 
d="M1523 1381q240 -240 240 -579t-240 -579t-579 -240t-579 240t-240 579t240 579t579 240t579 -240zM944 1412q-253 0 -431.5 -178.5t-178.5 -431.5t179 -432t431 -179q253 0 431.5 179t178.5 432t-178.5 431.5t-431.5 178.5zM1057 1888v-1q30 0 30 39q0 26 -13 69h186
q-38 -220 -147 -252q-28 -8 -56 -8q-74 0 -133.5 57t-87.5 57h-4q-30 -2 -30 -39q0 -25 14 -66h-187q39 220 149 252q28 8 56 8q73 0 135 -58t88 -58z" />
    <glyph glyph-name="Odieresis" unicode="&#xd6;" horiz-adv-x="1889" 
d="M1523 1381q240 -240 240 -579t-240 -579t-579 -240t-579 240t-240 579t240 579t579 240t579 -240zM944 1412q-253 0 -431.5 -178.5t-178.5 -431.5t179 -432t431 -179q253 0 431.5 179t178.5 432t-178.5 431.5t-431.5 178.5zM858 1967q43 -42 43 -102q0 -61 -43 -103
t-102 -42q-60 0 -102.5 42t-42.5 103q0 60 42.5 102t102.5 42q59 0 102 -42zM1234 1967q43 -42 43 -102q0 -61 -43 -103t-102 -42q-60 0 -102.5 42t-42.5 103q0 60 42.5 102t102.5 42q59 0 102 -42z" />
    <glyph glyph-name="multiply" unicode="&#xd7;" horiz-adv-x="1177" 
d="M588 461l-231 -231l-147 147l231 231l-231 232l147 147l231 -232l232 232l145 -148l-231 -231l231 -231l-145 -147z" />
    <glyph glyph-name="Oslash" unicode="&#xd8;" horiz-adv-x="1889" 
d="M1106 1396q-41 16 -162 16q-253 0 -431.5 -178.5t-178.5 -431.5t179 -432q65 -65 81 -74zM781 208q42 -17 163 -17q253 0 431.5 179t178.5 432t-178 432q-65 65 -82 74zM1383 1498q51 -28 141 -116q239 -241 239 -580t-240 -579t-579 -240q-164 0 -251 35l-80 -173
l-189 88l81 173q-51 28 -140 117q-240 240 -240 579t240 579t579 240q164 0 251 -35l81 173l188 -88z" />
    <glyph glyph-name="Ugrave" unicode="&#xd9;" horiz-adv-x="1388" 
d="M1030 1600h208v-1127q-27 -193 -159 -326q-160 -160 -385 -160t-384.5 159.5t-159.5 384.5v1069h208v-1069q0 -138 98.5 -236.5t237.5 -98.5q140 0 238 98t98 237v1069zM850 1699h-197l-272 279h252z" />
    <glyph glyph-name="Uacute" unicode="&#xda;" horiz-adv-x="1388" 
d="M1030 1600h208v-1127q-27 -193 -159 -326q-160 -160 -385 -160t-384.5 159.5t-159.5 384.5v1069h208v-1069q0 -138 98.5 -236.5t237.5 -98.5q140 0 238 98t98 237v1069zM755 1978h252l-272 -279h-197z" />
    <glyph glyph-name="Ucircumflex" unicode="&#xdb;" horiz-adv-x="1388" 
d="M1030 1600h208v-1127q-27 -193 -159 -326q-160 -160 -385 -160t-384.5 159.5t-159.5 384.5v1069h208v-1069q0 -138 98.5 -236.5t237.5 -98.5q140 0 238 98t98 237v1069zM784 1749l-92 82l-89 -82h-219l233 238h147l241 -238h-221z" />
    <glyph glyph-name="Udieresis" unicode="&#xdc;" horiz-adv-x="1388" 
d="M1030 1600h208v-1127q-27 -193 -159 -326q-160 -160 -385 -160t-384.5 159.5t-159.5 384.5v1069h208v-1069q0 -138 98.5 -236.5t237.5 -98.5q140 0 238 98t98 237v1069zM608 1967q43 -42 43 -102q0 -61 -43 -103t-102 -42q-60 0 -102.5 42t-42.5 103q0 60 42.5 102
t102.5 42q59 0 102 -42zM984 1967q43 -42 43 -102q0 -61 -43 -103t-102 -42q-60 0 -102.5 42t-42.5 103q0 60 42.5 102t102.5 42q59 0 102 -42z" />
    <glyph glyph-name="Yacute" unicode="&#xdd;" horiz-adv-x="1414" 
d="M603 642l-553 958h238l418 -724l419 724h239l-554 -958v-642h-207v642zM768 1978h252l-272 -279h-197z" />
    <glyph glyph-name="Thorn" unicode="&#xde;" horiz-adv-x="1180" 
d="M357 1345h247q193 -27 326 -160q159 -159 159 -384q0 -226 -159 -385t-384 -159h-189v-257h-207v1600h207v-255zM357 465h189q138 0 236.5 98.5t98.5 237.5t-98.5 237t-236.5 98h-189v-671z" />
    <glyph glyph-name="germandbls" unicode="&#xdf;" horiz-adv-x="1142" 
d="M469 1607h16q134 0 230 -78q105 -87 114 -256v-17q0 -164 -46 -192q255 -102 269 -492q0 -236 -165 -407q-156 -161 -311 -163v-2h-78v208h78v3q64 4 159 103q105 108 105 257q0 147 -104.5 251.5t-245.5 104.5v210q65 8 99 39.5t34 86.5q0 58 -36 99q-30 34 -93 34h-9
q-69 -2 -101 -40.5t-37 -127.5v-1228h-207v1246q11 173 96.5 264.5t232.5 96.5z" />
    <glyph glyph-name="agrave" unicode="&#xe0;" horiz-adv-x="1401" 
d="M1042 466v152q-18 97 -96 176q-105 104 -252 104q-148 0 -252.5 -104t-104.5 -252q0 -147 104.5 -251.5t252.5 -104.5q147 0 252 104q78 79 96 176zM1042 957v72h208v-1030h-208v129q-150 -155 -348 -155q-236 0 -402.5 166.5t-166.5 402.5t166.5 402.5t402.5 166.5
q198 0 348 -154zM844 1128h-197l-272 279h252z" />
    <glyph glyph-name="aacute" unicode="&#xe1;" horiz-adv-x="1401" 
d="M1042 466v152q-18 97 -96 176q-105 104 -252 104q-148 0 -252.5 -104t-104.5 -252q0 -147 104.5 -251.5t252.5 -104.5q147 0 252 104q78 79 96 176zM1042 957v72h208v-1030h-208v129q-150 -155 -348 -155q-236 0 -402.5 166.5t-166.5 402.5t166.5 402.5t402.5 166.5
q198 0 348 -154zM748 1407h252l-272 -279h-197z" />
    <glyph glyph-name="acircumflex" unicode="&#xe2;" horiz-adv-x="1401" 
d="M1042 466v152q-18 97 -96 176q-105 104 -252 104q-148 0 -252.5 -104t-104.5 -252q0 -147 104.5 -251.5t252.5 -104.5q147 0 252 104q78 79 96 176zM1042 957v72h208v-1030h-208v129q-150 -155 -348 -155q-236 0 -402.5 166.5t-166.5 402.5t166.5 402.5t402.5 166.5
q198 0 348 -154zM777 1178l-92 82l-89 -82h-219l233 238h147l241 -238h-221z" />
    <glyph glyph-name="atilde" unicode="&#xe3;" horiz-adv-x="1401" 
d="M1042 466v152q-18 97 -96 176q-105 104 -252 104q-148 0 -252.5 -104t-104.5 -252q0 -147 104.5 -251.5t252.5 -104.5q147 0 252 104q78 79 96 176zM1042 957v72h208v-1030h-208v129q-150 -155 -348 -155q-236 0 -402.5 166.5t-166.5 402.5t166.5 402.5t402.5 166.5
q198 0 348 -154zM800 1317v-1q30 0 30 39q0 26 -13 69h186q-38 -220 -147 -252q-28 -8 -56 -8q-74 0 -133.5 57t-87.5 57h-4q-30 -2 -30 -39q0 -25 14 -66h-187q39 220 149 252q28 8 56 8q73 0 135 -58t88 -58z" />
    <glyph glyph-name="adieresis" unicode="&#xe4;" horiz-adv-x="1401" 
d="M1042 466v152q-18 97 -96 176q-105 104 -252 104q-148 0 -252.5 -104t-104.5 -252q0 -147 104.5 -251.5t252.5 -104.5q147 0 252 104q78 79 96 176zM1042 957v72h208v-1030h-208v129q-150 -155 -348 -155q-236 0 -402.5 166.5t-166.5 402.5t166.5 402.5t402.5 166.5
q198 0 348 -154zM602 1396q43 -42 43 -102q0 -61 -43 -103t-102 -42q-60 0 -102.5 42t-42.5 103q0 60 42.5 102t102.5 42q59 0 102 -42zM978 1396q43 -42 43 -102q0 -61 -43 -103t-102 -42q-60 0 -102.5 42t-42.5 103q0 60 42.5 102t102.5 42q59 0 102 -42z" />
    <glyph glyph-name="aring" unicode="&#xe5;" horiz-adv-x="1401" 
d="M1042 466v152q-18 97 -96 176q-105 104 -252 104q-148 0 -252.5 -104t-104.5 -252q0 -147 104.5 -251.5t252.5 -104.5q147 0 252 104q78 79 96 176zM690 1199q22 0 38 15.5t16 38.5q0 28 -16 43.5t-38 15.5q-28 0 -43.5 -15.5t-15.5 -43.5q0 -23 15.5 -38.5t43.5 -15.5z
M822 1094q121 -35 220 -137v72h208v-1030h-208v129q-150 -155 -348 -155q-236 0 -402.5 166.5t-166.5 402.5t167 403q113 113 260 149q-7 6 -13 13q-62 62 -62 148q0 87 61.5 149t149.5 62q87 0 148.5 -62t61.5 -149q0 -86 -61 -148q-8 -7 -15 -13z" />
    <glyph glyph-name="ae" unicode="&#xe6;" horiz-adv-x="2142" 
d="M972 714q-24 43 -62 81q-104 104 -252 104q-147 0 -251.5 -104t-104.5 -252t104.5 -252t251.5 -104q148 0 252 105q39 38 62 80q27 47 36 95v152q-9 48 -36 95zM1804 736l-59 59q-104 104 -252 104t-252 -104q-22 -22 -26 -28v-31h589zM1008 992v38h207q56 82 278 82
q236 0 403 -167q148 -149 156 -417l-837 1v-210q4 -6 25 -27q105 -105 253 -105t252 105q19 19 63 73l202 -71q-59 -98 -114 -153q-167 -166 -403 -166q-222 0 -278 52v-27h-207v95q-150 -120 -350 -120q-235 0 -401.5 166.5t-166.5 401.5q0 236 166.5 402.5t401.5 166.5
q200 0 350 -120z" />
    <glyph glyph-name="ccedilla" unicode="&#xe7;" horiz-adv-x="1262" 
d="M570 -21q-179 27 -313 161q-167 167 -167 403t167 403t402 167q236 0 403 -167q34 -34 110 -137l-207 -76q-40 49 -54 63q-104 104 -252 104q-147 0 -251.5 -104.5t-104.5 -252.5q0 -147 104.5 -251.5t251.5 -104.5q148 0 253 104q13 14 53 62l207 -74
q-76 -105 -110 -139q-146 -146 -345 -164l-7 -20q74 -38 95 -89q4 -14 7 -27t3 -26q0 -43 -31 -81q-49 -59 -144 -73q-19 -3 -44 -3q-58 0 -149 15l35 126q57 -26 93 -26q6 0 11 1q31 4 40 35q3 7 3 15q0 4 -1 8q-6 28 -92 56z" />
    <glyph glyph-name="egrave" unicode="&#xe8;" horiz-adv-x="1262" 
d="M470 233q52 -46 189 -46q148 0 253 104q13 14 53 62l207 -74q-76 -105 -110 -139q-167 -167 -403 -167q-235 0 -402 167t-167 403t167 403t402 167q202 0 354 -122q25 -21 49 -45q10 -10 57 -63l-104 -105zM816 873q-35 27 -157 27q-147 0 -251.5 -104.5t-104.5 -252.5
q0 -121 27 -157zM787 1128h-197l-272 279h252z" />
    <glyph glyph-name="eacute" unicode="&#xe9;" horiz-adv-x="1262" 
d="M470 233q52 -46 189 -46q148 0 253 104q13 14 53 62l207 -74q-76 -105 -110 -139q-167 -167 -403 -167q-235 0 -402 167t-167 403t167 403t402 167q202 0 354 -122q25 -21 49 -45q10 -10 57 -63l-104 -105zM816 873q-35 27 -157 27q-147 0 -251.5 -104.5t-104.5 -252.5
q0 -121 27 -157zM692 1407h252l-272 -279h-197z" />
    <glyph glyph-name="ecircumflex" unicode="&#xea;" horiz-adv-x="1262" 
d="M470 233q52 -46 189 -46q148 0 253 104q13 14 53 62l207 -74q-76 -105 -110 -139q-167 -167 -403 -167q-235 0 -402 167t-167 403t167 403t402 167q202 0 354 -122q25 -21 49 -45q10 -10 57 -63l-104 -105zM816 873q-35 27 -157 27q-147 0 -251.5 -104.5t-104.5 -252.5
q0 -121 27 -157zM721 1178l-92 82l-89 -82h-219l233 238h147l241 -238h-221z" />
    <glyph glyph-name="edieresis" unicode="&#xeb;" horiz-adv-x="1262" 
d="M470 233q52 -46 189 -46q148 0 253 104q13 14 53 62l207 -74q-76 -105 -110 -139q-167 -167 -403 -167q-235 0 -402 167t-167 403t167 403t402 167q202 0 354 -122q25 -21 49 -45q10 -10 57 -63l-104 -105zM816 873q-35 27 -157 27q-147 0 -251.5 -104.5t-104.5 -252.5
q0 -121 27 -157zM545 1396q43 -42 43 -102q0 -61 -43 -103t-102 -42q-60 0 -102.5 42t-42.5 103q0 60 42.5 102t102.5 42q59 0 102 -42zM921 1396q43 -42 43 -102q0 -61 -43 -103t-102 -42q-60 0 -102.5 42t-42.5 103q0 60 42.5 102t102.5 42q59 0 102 -42z" />
    <glyph glyph-name="igrave" unicode="&#xec;" 
d="M377 1030v-1030h-207v1030h207zM430 1128h-197l-272 279h252z" />
    <glyph glyph-name="iacute" unicode="&#xed;" 
d="M377 1030v-1030h-207v1030h207zM334 1407h252l-272 -279h-197z" />
    <glyph glyph-name="icircumflex" unicode="&#xee;" 
d="M377 1030v-1030h-207v1030h207zM363 1178l-92 82l-89 -82h-219l233 238h147l241 -238h-221z" />
    <glyph glyph-name="idieresis" unicode="&#xef;" 
d="M378 1030v-1030h-207v1030h207zM188 1396q43 -42 43 -102q0 -61 -43 -103t-102 -42q-60 0 -102.5 42t-42.5 103q0 60 42.5 102t102.5 42q59 0 102 -42zM564 1396q43 -42 43 -102q0 -61 -43 -103t-102 -42q-60 0 -102.5 42t-42.5 103q0 60 42.5 102t102.5 42q59 0 102 -42
z" />
    <glyph glyph-name="eth" unicode="&#xf0;" horiz-adv-x="1318" 
d="M302 543q0 -148 104.5 -252t252.5 -104t252.5 104t104.5 252q0 147 -104.5 252t-252.5 105t-252.5 -105t-104.5 -252zM1228 543q0 -236 -166.5 -403t-402.5 -167q-235 0 -402 167t-167 403t167 403t402 167q17 0 34 -1l-166 184l-124 -88h-257l282 198l-182 194h252
l80 -88l135 88h252l-293 -201l341 -409q25 -21 49 -44q63 -63 102 -137l1 -1q63 -119 63 -265z" />
    <glyph glyph-name="ntilde" unicode="&#xf1;" horiz-adv-x="1139" 
d="M358 753v-753h-208v1029h208v-120q65 176 261 176q167 0 265.5 -118.5t101.5 -297.5v-669h-207v661q0 89 -65 152.5t-155 63.5q-89 0 -154 -62q-36 -37 -47 -62zM681 1317v-1q30 0 30 39q0 26 -13 69h186q-38 -220 -147 -252q-28 -8 -56 -8q-74 0 -133.5 57t-87.5 57h-4
q-30 -2 -30 -39q0 -25 14 -66h-187q39 220 149 252q28 8 56 8q73 0 135 -58t88 -58z" />
    <glyph glyph-name="ograve" unicode="&#xf2;" horiz-adv-x="1318" 
d="M659 1113q236 0 402.5 -167t166.5 -403t-166.5 -403t-402.5 -167q-235 0 -402 167t-167 403t167 403t402 167zM406.5 795q-104.5 -105 -104.5 -252q0 -148 104.5 -252t252.5 -104t252.5 104t104.5 252q0 147 -104.5 252t-252.5 105t-252.5 -105zM815 1128h-197l-272 279
h252z" />
    <glyph glyph-name="oacute" unicode="&#xf3;" horiz-adv-x="1318" 
d="M659 1113q236 0 402.5 -167t166.5 -403t-166.5 -403t-402.5 -167q-235 0 -402 167t-167 403t167 403t402 167zM406.5 795q-104.5 -105 -104.5 -252q0 -148 104.5 -252t252.5 -104t252.5 104t104.5 252q0 147 -104.5 252t-252.5 105t-252.5 -105zM720 1407h252l-272 -279
h-197z" />
    <glyph glyph-name="ocircumflex" unicode="&#xf4;" horiz-adv-x="1318" 
d="M659 1113q236 0 402.5 -167t166.5 -403t-166.5 -403t-402.5 -167q-235 0 -402 167t-167 403t167 403t402 167zM406.5 795q-104.5 -105 -104.5 -252q0 -148 104.5 -252t252.5 -104t252.5 104t104.5 252q0 147 -104.5 252t-252.5 105t-252.5 -105zM749 1178l-92 82l-89 -82
h-219l233 238h147l241 -238h-221z" />
    <glyph glyph-name="otilde" unicode="&#xf5;" horiz-adv-x="1318" 
d="M659 1113q236 0 402.5 -167t166.5 -403t-166.5 -403t-402.5 -167q-235 0 -402 167t-167 403t167 403t402 167zM406.5 795q-104.5 -105 -104.5 -252q0 -148 104.5 -252t252.5 -104t252.5 104t104.5 252q0 147 -104.5 252t-252.5 105t-252.5 -105zM772 1317v-1q30 0 30 39
q0 26 -13 69h186q-38 -220 -147 -252q-28 -8 -56 -8q-74 0 -133.5 57t-87.5 57h-4q-30 -2 -30 -39q0 -25 14 -66h-187q39 220 149 252q28 8 56 8q73 0 135 -58t88 -58z" />
    <glyph glyph-name="odieresis" unicode="&#xf6;" horiz-adv-x="1318" 
d="M659 1113q236 0 402.5 -167t166.5 -403t-166.5 -403t-402.5 -167q-235 0 -402 167t-167 403t167 403t402 167zM406.5 795q-104.5 -105 -104.5 -252q0 -148 104.5 -252t252.5 -104t252.5 104t104.5 252q0 147 -104.5 252t-252.5 105t-252.5 -105zM573 1396q43 -42 43 -102
q0 -61 -43 -103t-102 -42q-60 0 -102.5 42t-42.5 103q0 60 42.5 102t102.5 42q59 0 102 -42zM949 1396q43 -42 43 -102q0 -61 -43 -103t-102 -42q-60 0 -102.5 42t-42.5 103q0 60 42.5 102t102.5 42q59 0 102 -42z" />
    <glyph glyph-name="divide" unicode="&#xf7;" horiz-adv-x="1112" 
d="M125 732h862v-207h-862v207zM658.5 1015q42.5 -42 42.5 -102q0 -61 -42.5 -103t-102.5 -42t-102.5 42t-42.5 103q0 60 42.5 102t102.5 42t102.5 -42zM658.5 446q42.5 -42 42.5 -102q0 -61 -42.5 -103t-102.5 -42t-102.5 42t-42.5 103q0 60 42.5 102t102.5 42t102.5 -42z
" />
    <glyph glyph-name="oslash" unicode="&#xf8;" horiz-adv-x="1317" 
d="M744 898q-5 2 -86 2q-147 0 -251.5 -104.5t-104.5 -251.5q0 -148 93 -251zM573 190q5 -2 85 -2q148 0 252.5 104t104.5 252q0 147 -105 252zM294 105l-37 37q-167 167 -167 402q0 236 166.5 402.5t401.5 166.5q134 0 194 -29l113 197l184 -95l-125 -202l37 -38
q166 -166 166 -402q0 -235 -166.5 -402t-402.5 -167q-133 0 -192 29l-114 -196l-185 89z" />
    <glyph glyph-name="ugrave" unicode="&#xf9;" horiz-adv-x="1162" 
d="M586 -14q-195 0 -314 119t-122 298v626h208v-618q0 -89 65 -153t162 -64q89 0 154.5 63.5t65.5 153.5v618h207v-626q-3 -179 -121 -298q-119 -119 -305 -119zM737 1128h-197l-272 279h252z" />
    <glyph glyph-name="uacute" unicode="&#xfa;" horiz-adv-x="1162" 
d="M586 -14q-195 0 -314 119t-122 298v626h208v-618q0 -89 65 -153t162 -64q89 0 154.5 63.5t65.5 153.5v618h207v-626q-3 -179 -121 -298q-119 -119 -305 -119zM642 1407h252l-272 -279h-197z" />
    <glyph glyph-name="ucircumflex" unicode="&#xfb;" horiz-adv-x="1162" 
d="M586 -14q-195 0 -314 119t-122 298v626h208v-618q0 -89 65 -153t162 -64q89 0 154.5 63.5t65.5 153.5v618h207v-626q-3 -179 -121 -298q-119 -119 -305 -119zM671 1178l-92 82l-89 -82h-219l233 238h147l241 -238h-221z" />
    <glyph glyph-name="udieresis" unicode="&#xfc;" horiz-adv-x="1162" 
d="M586 -14q-195 0 -314 119t-122 298v626h208v-618q0 -89 65 -153t162 -64q89 0 154.5 63.5t65.5 153.5v618h207v-626q-3 -179 -121 -298q-119 -119 -305 -119zM495 1396q43 -42 43 -102q0 -61 -43 -103t-102 -42q-60 0 -102.5 42t-42.5 103q0 60 42.5 102t102.5 42
q59 0 102 -42zM871 1396q43 -42 43 -102q0 -61 -43 -103t-102 -42q-60 0 -102.5 42t-42.5 103q0 60 42.5 102t102.5 42q59 0 102 -42z" />
    <glyph glyph-name="yacute" unicode="&#xfd;" horiz-adv-x="1139" 
d="M403 -346h-219l274 575l-383 800h233l261 -563l261 563h232zM629 1407h252l-272 -279h-197z" />
    <glyph glyph-name="thorn" unicode="&#xfe;" horiz-adv-x="1374" 
d="M357 462q19 -94 96 -171q105 -105 252 -105q148 0 252.5 104.5t104.5 252.5t-104.5 252t-252.5 104q-147 0 -252 -104q-77 -77 -96 -172v-161zM357 158v-503h-207v1945h207v-679q150 190 348 190q236 0 402.5 -166t166.5 -402q0 -235 -166 -401.5t-403 -166.5
q-199 0 -348 183z" />
    <glyph glyph-name="ydieresis" unicode="&#xff;" horiz-adv-x="1139" 
d="M403 -346h-219l274 575l-383 800h233l261 -563l261 563h232zM483 1396q43 -42 43 -102q0 -61 -43 -103t-102 -42q-60 0 -102.5 42t-42.5 103q0 60 42.5 102t102.5 42q59 0 102 -42zM859 1396q43 -42 43 -102q0 -61 -43 -103t-102 -42q-60 0 -102.5 42t-42.5 103
q0 60 42.5 102t102.5 42q59 0 102 -42z" />
    <glyph glyph-name="Amacron" unicode="&#x100;" horiz-adv-x="1376" 
d="M825 773l-137 375l-136 -375h273zM744 1600l582 -1600h-220l-206 566h-424l-205 -566h-221l582 1600h112zM405 2008h567v-207h-567v207z" />
    <glyph glyph-name="amacron" unicode="&#x101;" horiz-adv-x="1401" 
d="M1042 466v152q-18 97 -96 176q-105 104 -252 104q-148 0 -252.5 -104t-104.5 -252q0 -147 104.5 -251.5t252.5 -104.5q147 0 252 104q78 79 96 176zM1042 957v72h208v-1030h-208v129q-150 -155 -348 -155q-236 0 -402.5 166.5t-166.5 402.5t166.5 402.5t402.5 166.5
q198 0 348 -154zM404 1437h567v-207h-567v207z" />
    <glyph glyph-name="Abreve" unicode="&#x102;" horiz-adv-x="1376" 
d="M825 773l-137 375l-136 -375h273zM744 1600l582 -1600h-220l-206 566h-424l-205 -566h-221l582 1600h112zM600 1984q11 -62 26 -77q26 -26 63 -26q36 0 62 27q15 14 25 76h190q-22 -123 -80 -182q-81 -82 -197 -82q-117 0 -198 82q-63 63 -80 182h189z" />
    <glyph glyph-name="abreve" unicode="&#x103;" horiz-adv-x="1401" 
d="M1042 466v152q-18 97 -96 176q-105 104 -252 104q-148 0 -252.5 -104t-104.5 -252q0 -147 104.5 -251.5t252.5 -104.5q147 0 252 104q78 79 96 176zM1042 957v72h208v-1030h-208v129q-150 -155 -348 -155q-236 0 -402.5 166.5t-166.5 402.5t166.5 402.5t402.5 166.5
q198 0 348 -154zM599 1413q11 -62 26 -77q26 -26 63 -26q36 0 62 27q15 14 25 76h190q-22 -123 -80 -182q-81 -82 -197 -82q-117 0 -198 82q-63 63 -80 182h189z" />
    <glyph glyph-name="Aogonek" unicode="&#x104;" horiz-adv-x="1376" 
d="M825 773l-137 375l-136 -375h273zM1079 75l-179 491h-424l-205 -566h-221l582 1600h112l582 -1600h-155q-51 -71 -51 -119q0 -16 6 -29q15 -37 46 -37q37 0 96 51l58 -153q-122 -50 -185 -50q-95 0 -154 66q-48 54 -48 130q0 17 2 35q14 96 138 181z" />
    <glyph glyph-name="aogonek" unicode="&#x105;" horiz-adv-x="1401" 
d="M1042 466v152q-18 97 -96 176q-105 104 -252 104q-148 0 -252.5 -104t-104.5 -252q0 -147 104.5 -251.5t252.5 -104.5q147 0 252 104q78 79 96 176zM1042 60v68q-150 -155 -348 -155q-236 0 -402.5 166.5t-166.5 402.5t166.5 402.5t402.5 166.5q198 0 348 -154v72h208
v-1030h-95q-51 -71 -51 -118q0 -16 6 -29q15 -37 46 -37q37 0 96 51l58 -153q-122 -50 -185 -50q-95 0 -154 66q-48 54 -48 130q0 17 2 35q13 88 117 166z" />
    <glyph glyph-name="Cacute" unicode="&#x106;" horiz-adv-x="1642" 
d="M1388 381l155 -139q-284 -259 -601 -259q-339 0 -578 239t-239 578q0 338 239 578t578 240q317 0 601 -259l-155 -141q-214 190 -446 190q-251 0 -429.5 -178t-178.5 -430q0 -253 178.5 -431t429.5 -178q232 0 446 190zM895 1978h252l-272 -279h-197z" />
    <glyph glyph-name="cacute" unicode="&#x107;" horiz-adv-x="1262" 
d="M965 353l207 -74q-76 -105 -110 -139q-167 -167 -403 -167q-235 0 -402 167t-167 403t167 403t402 167q236 0 403 -167q34 -34 110 -137l-207 -76q-40 49 -54 63q-104 104 -252 104q-147 0 -251.5 -104.5t-104.5 -252.5q0 -147 104.5 -251.5t251.5 -104.5q148 0 253 104
q13 14 53 62zM692 1407h252l-272 -279h-197z" />
    <glyph glyph-name="Ccircumflex" unicode="&#x108;" horiz-adv-x="1642" 
d="M1388 381l155 -139q-284 -259 -601 -259q-339 0 -578 239t-239 578q0 338 239 578t578 240q317 0 601 -259l-155 -141q-214 190 -446 190q-251 0 -429.5 -178t-178.5 -430q0 -253 178.5 -431t429.5 -178q232 0 446 190zM924 1749l-92 82l-89 -82h-219l233 238h147
l241 -238h-221z" />
    <glyph glyph-name="ccircumflex" unicode="&#x109;" horiz-adv-x="1262" 
d="M965 353l207 -74q-76 -105 -110 -139q-167 -167 -403 -167q-235 0 -402 167t-167 403t167 403t402 167q236 0 403 -167q34 -34 110 -137l-207 -76q-40 49 -54 63q-104 104 -252 104q-147 0 -251.5 -104.5t-104.5 -252.5q0 -147 104.5 -251.5t251.5 -104.5q148 0 253 104
q13 14 53 62zM721 1178l-92 82l-89 -82h-219l233 238h147l241 -238h-221z" />
    <glyph glyph-name="Cdotaccent" unicode="&#x10a;" horiz-adv-x="1642" 
d="M1388 381l155 -139q-284 -259 -601 -259q-339 0 -578 239t-239 578q0 338 239 578t578 240q317 0 601 -259l-155 -141q-214 190 -446 190q-251 0 -429.5 -178t-178.5 -430q0 -253 178.5 -431t429.5 -178q232 0 446 190zM928 1969q39 -38 39 -94t-39 -94t-93 -38
q-55 0 -94 38t-39 94t39 94t94 38q54 0 93 -38z" />
    <glyph glyph-name="cdotaccent" unicode="&#x10b;" horiz-adv-x="1262" 
d="M965 353l207 -74q-76 -105 -110 -139q-167 -167 -403 -167q-235 0 -402 167t-167 403t167 403t402 167q236 0 403 -167q34 -34 110 -137l-207 -76q-40 49 -54 63q-104 104 -252 104q-147 0 -251.5 -104.5t-104.5 -252.5q0 -147 104.5 -251.5t251.5 -104.5q148 0 253 104
q13 14 53 62zM725 1398q39 -38 39 -94t-39 -94t-93 -38q-55 0 -94 38t-39 94t39 94t94 38q54 0 93 -38z" />
    <glyph glyph-name="Ccaron" unicode="&#x10c;" horiz-adv-x="1642" 
d="M1388 381l155 -139q-284 -259 -601 -259q-339 0 -578 239t-239 578q0 338 239 578t578 240q317 0 601 -259l-155 -141q-214 190 -446 190q-251 0 -429.5 -178t-178.5 -430q0 -253 178.5 -431t429.5 -178q232 0 446 190zM1145 1987l-241 -238h-147l-233 238h219l89 -82
l92 82h221z" />
    <glyph glyph-name="ccaron" unicode="&#x10d;" horiz-adv-x="1262" 
d="M965 353l207 -74q-76 -105 -110 -139q-167 -167 -403 -167q-235 0 -402 167t-167 403t167 403t402 167q236 0 403 -167q34 -34 110 -137l-207 -76q-40 49 -54 63q-104 104 -252 104q-147 0 -251.5 -104.5t-104.5 -252.5q0 -147 104.5 -251.5t251.5 -104.5q148 0 253 104
q13 14 53 62zM942 1416l-241 -238h-147l-233 238h219l89 -82l92 82h221z" />
    <glyph glyph-name="Dcaron" unicode="&#x10e;" horiz-adv-x="1250" 
d="M357 1389v-1179q247 0 405 159q178 178 178 431q0 252 -178 431q-158 158 -405 158zM302 1600q390 -2 608 -221q239 -241 239 -579q0 -339 -239 -579q-218 -219 -608 -221h-152v1600h152zM960 1987l-241 -238h-147l-233 238h219l89 -82l92 82h221z" />
    <glyph glyph-name="dcaron" unicode="&#x10f;" horiz-adv-x="1619" 
d="M1043 466v153q-18 97 -97 176q-104 105 -252 105t-252.5 -105t-104.5 -252q0 -148 104.5 -252t252.5 -104t252 104q79 79 97 175zM1043 958v642h208v-1600h-208v128q-150 -155 -349 -155q-236 0 -402.5 167t-166.5 403t166.5 403t402.5 167q199 0 349 -155zM1361 1363
q-42 42 -42 103q0 60 42.5 102t102.5 42q59 0 102 -42t43 -102q0 -32 -12 -62l-108 -219h-189z" />
    <glyph glyph-name="Dcroat" unicode="&#x110;" horiz-adv-x="1250" 
d="M150 903v697h152q390 -2 608 -221q239 -241 239 -579q0 -339 -239 -579q-218 -219 -608 -221h-152v697h-190v206h190zM357 903h347v-206h-347v-487q247 0 405 159q178 178 178 431q0 252 -178 431q-158 158 -405 158v-486z" />
    <glyph glyph-name="dcroat" unicode="&#x111;" horiz-adv-x="1401" 
d="M1043 466v153q-18 97 -97 176q-104 105 -252 105t-252.5 -105t-104.5 -252q0 -148 104.5 -252t252.5 -104t252 104q79 79 97 175zM1251 1225v-1225h-208v128q-150 -155 -349 -155q-236 0 -402.5 167t-166.5 403t166.5 403t402.5 167q199 0 349 -155v267h-466v206h466v169
h208v-169h170v-206h-170z" />
    <glyph glyph-name="Emacron" unicode="&#x112;" horiz-adv-x="1137" 
d="M1012 1600v-207h-655v-489h655v-207h-655v-489h655v-208h-862v1600h862zM298 2008h567v-207h-567v207z" />
    <glyph glyph-name="emacron" unicode="&#x113;" horiz-adv-x="1262" 
d="M470 233q52 -46 189 -46q148 0 253 104q13 14 53 62l207 -74q-76 -105 -110 -139q-167 -167 -403 -167q-235 0 -402 167t-167 403t167 403t402 167q202 0 354 -122q25 -21 49 -45q10 -10 57 -63l-104 -105zM816 873q-35 27 -157 27q-147 0 -251.5 -104.5t-104.5 -252.5
q0 -121 27 -157zM348 1437h567v-207h-567v207z" />
    <glyph glyph-name="Ebreve" unicode="&#x114;" horiz-adv-x="1137" 
d="M1012 1600v-207h-655v-489h655v-207h-655v-489h655v-208h-862v1600h862zM493 1984q11 -62 26 -77q26 -26 63 -26q36 0 62 27q15 14 25 76h190q-22 -123 -80 -182q-81 -82 -197 -82q-117 0 -198 82q-63 63 -80 182h189z" />
    <glyph glyph-name="ebreve" unicode="&#x115;" horiz-adv-x="1262" 
d="M470 233q52 -46 189 -46q148 0 253 104q13 14 53 62l207 -74q-76 -105 -110 -139q-167 -167 -403 -167q-235 0 -402 167t-167 403t167 403t402 167q202 0 354 -122q25 -21 49 -45q10 -10 57 -63l-104 -105zM816 873q-35 27 -157 27q-147 0 -251.5 -104.5t-104.5 -252.5
q0 -121 27 -157zM543 1413q11 -62 26 -77q26 -26 63 -26q36 0 62 27q15 14 25 76h190q-22 -123 -80 -182q-81 -82 -197 -82q-117 0 -198 82q-63 63 -80 182h189z" />
    <glyph glyph-name="Edotaccent" unicode="&#x116;" horiz-adv-x="1137" 
d="M1012 1600v-207h-655v-489h655v-207h-655v-489h655v-208h-862v1600h862zM675 1969q39 -38 39 -94t-39 -94t-93 -38q-55 0 -94 38t-39 94t39 94t94 38q54 0 93 -38z" />
    <glyph glyph-name="edotaccent" unicode="&#x117;" horiz-adv-x="1262" 
d="M470 233q52 -46 189 -46q148 0 253 104q13 14 53 62l207 -74q-76 -105 -110 -139q-167 -167 -403 -167q-235 0 -402 167t-167 403t167 403t402 167q202 0 354 -122q25 -21 49 -45q10 -10 57 -63l-104 -105zM816 873q-35 27 -157 27q-147 0 -251.5 -104.5t-104.5 -252.5
q0 -121 27 -157zM725 1398q39 -38 39 -94t-39 -94t-93 -38q-55 0 -94 38t-39 94t39 94t94 38q54 0 93 -38z" />
    <glyph glyph-name="Eogonek" unicode="&#x118;" horiz-adv-x="1137" 
d="M679 0h-529v1600h862v-207h-655v-489h655v-207h-655v-489h655v-208h-155q-51 -71 -51 -119q0 -16 6 -29q15 -37 46 -37q37 0 96 51l58 -153q-122 -50 -185 -50q-95 0 -154 66q-48 54 -48 130q0 17 2 35q8 55 52 106z" />
    <glyph glyph-name="eogonek" unicode="&#x119;" horiz-adv-x="1262" 
d="M816 873q-35 27 -157 27q-147 0 -251.5 -104.5t-104.5 -252.5q0 -121 27 -157zM732 -23q-36 -4 -73 -4q-235 0 -402 167t-167 403t167 403t402 167q202 0 354 -122q25 -21 49 -45q10 -10 57 -63l-104 -105l-545 -545q52 -46 189 -46q148 0 253 104q13 14 53 62l207 -74
q-76 -105 -110 -139q-30 -30 -61 -54q-125 -132 -125 -206q0 -16 6 -29q15 -37 46 -37q37 0 96 51l58 -153q-122 -50 -185 -50q-95 0 -154 66q-48 54 -48 130q0 17 2 35q6 43 35 84z" />
    <glyph glyph-name="Ecaron" unicode="&#x11a;" horiz-adv-x="1137" 
d="M1012 1600v-207h-655v-489h655v-207h-655v-489h655v-208h-862v1600h862zM892 1987l-241 -238h-147l-233 238h219l89 -82l92 82h221z" />
    <glyph glyph-name="ecaron" unicode="&#x11b;" horiz-adv-x="1262" 
d="M470 233q52 -46 189 -46q148 0 253 104q13 14 53 62l207 -74q-76 -105 -110 -139q-167 -167 -403 -167q-235 0 -402 167t-167 403t167 403t402 167q202 0 354 -122q25 -21 49 -45q10 -10 57 -63l-104 -105zM816 873q-35 27 -157 27q-147 0 -251.5 -104.5t-104.5 -252.5
q0 -121 27 -157zM942 1416l-241 -238h-147l-233 238h219l89 -82l92 82h221z" />
    <glyph glyph-name="Gcircumflex" unicode="&#x11c;" horiz-adv-x="1668" 
d="M1507 219q-247 -236 -565 -236q-339 0 -578 239t-239 578q0 338 239 578t578 240q317 0 601 -259l-155 -141q-214 190 -446 190q-251 0 -429.5 -178t-178.5 -430q0 -253 178.5 -431t429.5 -178q216 0 358 114v483h207v-569zM924 1749l-92 82l-89 -82h-219l233 238h147
l241 -238h-221z" />
    <glyph glyph-name="gcircumflex" unicode="&#x11d;" horiz-adv-x="1405" 
d="M1042 623q-19 95 -96 172q-104 105 -252 105t-252.5 -105t-104.5 -252q0 -148 104.5 -252.5t252.5 -104.5t252 104q77 77 96 170v163zM1043 958v71h208v-765q0 -300 -163 -463q-167 -147 -403 -147t-403 147q-34 34 -109 138l206 74q40 -48 54 -62q105 -104 252 -104
q247 0 342 324q-97 -188 -333 -188t-402.5 162t-166.5 398t166.5 402.5t402.5 166.5q199 0 349 -154zM778 1178l-92 82l-89 -82h-219l233 238h147l241 -238h-221z" />
    <glyph glyph-name="Gbreve" unicode="&#x11e;" horiz-adv-x="1668" 
d="M1507 219q-247 -236 -565 -236q-339 0 -578 239t-239 578q0 338 239 578t578 240q317 0 601 -259l-155 -141q-214 190 -446 190q-251 0 -429.5 -178t-178.5 -430q0 -253 178.5 -431t429.5 -178q216 0 358 114v483h207v-569zM746 1984q11 -62 26 -77q26 -26 63 -26
q36 0 62 27q15 14 25 76h190q-22 -123 -80 -182q-81 -82 -197 -82q-117 0 -198 82q-63 63 -80 182h189z" />
    <glyph glyph-name="gbreve" unicode="&#x11f;" horiz-adv-x="1405" 
d="M1042 623q-19 95 -96 172q-104 105 -252 105t-252.5 -105t-104.5 -252q0 -148 104.5 -252.5t252.5 -104.5t252 104q77 77 96 170v163zM1043 958v71h208v-765q0 -300 -163 -463q-167 -147 -403 -147t-403 147q-34 34 -109 138l206 74q40 -48 54 -62q105 -104 252 -104
q247 0 342 324q-97 -188 -333 -188t-402.5 162t-166.5 398t166.5 402.5t402.5 166.5q199 0 349 -154zM600 1413q11 -62 26 -77q26 -26 63 -26q36 0 62 27q15 14 25 76h190q-22 -123 -80 -182q-81 -82 -197 -82q-117 0 -198 82q-63 63 -80 182h189z" />
    <glyph glyph-name="Gdotaccent" unicode="&#x120;" horiz-adv-x="1668" 
d="M1507 219q-247 -236 -565 -236q-339 0 -578 239t-239 578q0 338 239 578t578 240q317 0 601 -259l-155 -141q-214 190 -446 190q-251 0 -429.5 -178t-178.5 -430q0 -253 178.5 -431t429.5 -178q216 0 358 114v483h207v-569zM928 1969q39 -38 39 -94t-39 -94t-93 -38
q-55 0 -94 38t-39 94t39 94t94 38q54 0 93 -38z" />
    <glyph glyph-name="gdotaccent" unicode="&#x121;" horiz-adv-x="1405" 
d="M1042 623q-19 95 -96 172q-104 105 -252 105t-252.5 -105t-104.5 -252q0 -148 104.5 -252.5t252.5 -104.5t252 104q77 77 96 170v163zM1043 958v71h208v-765q0 -300 -163 -463q-167 -147 -403 -147t-403 147q-34 34 -109 138l206 74q40 -48 54 -62q105 -104 252 -104
q247 0 342 324q-97 -188 -333 -188t-402.5 162t-166.5 398t166.5 402.5t402.5 166.5q199 0 349 -154zM782 1398q39 -38 39 -94t-39 -94t-93 -38q-55 0 -94 38t-39 94t39 94t94 38q54 0 93 -38z" />
    <glyph glyph-name="Gcommaaccent" unicode="&#x122;" horiz-adv-x="1668" 
d="M780 -2q-236 44 -416 224q-239 239 -239 578q0 338 239 578t578 240q317 0 601 -259l-155 -141q-214 190 -446 190q-251 0 -429.5 -178t-178.5 -430q0 -253 178.5 -431t429.5 -178q216 0 358 114v483h207v-569q-247 -236 -565 -236h-19l-10 -27q74 -38 95 -89
q4 -14 7 -27t3 -26q0 -43 -31 -81q-49 -59 -144 -73q-19 -3 -44 -3q-58 0 -149 15l35 126q57 -26 93 -26q6 0 11 1q31 4 40 35q3 7 3 15q0 4 -1 8q-6 28 -92 56z" />
    <glyph glyph-name="gcommaaccent" unicode="&#x123;" horiz-adv-x="1405" 
d="M1042 623q-19 95 -96 172q-104 105 -252 105t-252.5 -105t-104.5 -252q0 -148 104.5 -252.5t252.5 -104.5t252 104q77 77 96 170v163zM1043 958v71h208v-765q0 -300 -163 -463q-167 -147 -403 -147t-403 147q-34 34 -109 138l206 74q40 -48 54 -62q105 -104 252 -104
q247 0 342 324q-97 -188 -333 -188t-402.5 162t-166.5 398t166.5 402.5t402.5 166.5q199 0 349 -154zM788 1432q42 -42 42 -103q0 -60 -42.5 -102t-102.5 -42q-59 0 -102 42t-43 102q0 32 12 62l108 219h189z" />
    <glyph glyph-name="Hcircumflex" unicode="&#x124;" horiz-adv-x="1208" 
d="M357 662v-662h-207v1600h207v-731h494v731h207v-1600h-207v662h-494zM694 1749l-92 82l-89 -82h-219l233 238h147l241 -238h-221z" />
    <glyph glyph-name="hcircumflex" unicode="&#x125;" horiz-adv-x="1125" 
d="M150 1600h208v-682q87 167 252 167t263.5 -118.5t101.5 -297.5v-669h-207v661q0 89 -50.5 152.5t-159.5 63.5q-129 0 -200 -138v-739h-208v1600zM694 1749l-92 82l-89 -82h-219l233 238h147l241 -238h-221z" />
    <glyph glyph-name="Hbar" unicode="&#x126;" horiz-adv-x="1208" 
d="M1058 1194v-1194h-207v662h-494v-662h-207v1194h-138v206h138v200h207v-200h494v200h207v-200h138v-206h-138zM357 1194v-325h494v325h-494z" />
    <glyph glyph-name="hbar" unicode="&#x127;" horiz-adv-x="1125" 
d="M150 1431v169h208v-169h446v-206h-446v-307q87 167 252 167t263.5 -118.5t101.5 -297.5v-669h-207v661q0 89 -50.5 152.5t-159.5 63.5q-129 0 -200 -138v-739h-208v1225h-140v206h140z" />
    <glyph glyph-name="Itilde" unicode="&#x128;" 
d="M377 1600v-1600h-207v1600h207zM386 1888v-1q30 0 30 39q0 26 -13 69h186q-38 -220 -147 -252q-28 -8 -56 -8q-74 0 -133.5 57t-87.5 57h-4q-30 -2 -30 -39q0 -25 14 -66h-187q39 220 149 252q28 8 56 8q73 0 135 -58t88 -58z" />
    <glyph glyph-name="itilde" unicode="&#x129;" 
d="M377 1030v-1030h-207v1030h207zM386 1317v-1q30 0 30 39q0 26 -13 69h186q-38 -220 -147 -252q-28 -8 -56 -8q-74 0 -133.5 57t-87.5 57h-4q-30 -2 -30 -39q0 -25 14 -66h-187q39 220 149 252q28 8 56 8q73 0 135 -58t88 -58z" />
    <glyph glyph-name="Imacron" unicode="&#x12a;" 
d="M377 1600v-1600h-207v1600h207zM-10 2008h567v-207h-567v207z" />
    <glyph glyph-name="imacron" unicode="&#x12b;" 
d="M377 1030v-1030h-207v1030h207zM-10 1437h567v-207h-567v207z" />
    <glyph glyph-name="Ibreve" unicode="&#x12c;" 
d="M377 1600v-1600h-207v1600h207zM185 1984q11 -62 26 -77q26 -26 63 -26q36 0 62 27q15 14 25 76h190q-22 -123 -80 -182q-81 -82 -197 -82q-117 0 -198 82q-63 63 -80 182h189z" />
    <glyph glyph-name="ibreve" unicode="&#x12d;" 
d="M377 1030v-1030h-207v1030h207zM185 1413q11 -62 26 -77q26 -26 63 -26q36 0 62 27q15 14 25 76h190q-22 -123 -80 -182q-81 -82 -197 -82q-117 0 -198 82q-63 63 -80 182h189z" />
    <glyph glyph-name="Iogonek" unicode="&#x12e;" 
d="M170 100v1500h207v-1600h-155q-51 -71 -51 -119q0 -16 6 -29q15 -37 46 -37q37 0 96 51l58 -153q-122 -50 -185 -50q-95 0 -154 66q-48 54 -48 130q0 17 2 35q16 111 178 206z" />
    <glyph glyph-name="iogonek" unicode="&#x12f;" horiz-adv-x="541" 
d="M373 1410q43 -42 43 -103t-43 -103t-103 -42q-59 0 -102 42t-43 103t43 103t102 42q60 0 103 -42zM167 73v956h207v-1029h-113q-51 -71 -51 -119q0 -16 6 -29q15 -37 46 -37q37 0 96 51l58 -153q-122 -50 -185 -50q-95 0 -154 66q-48 54 -48 130q0 17 2 35q14 95 136 179
z" />
    <glyph glyph-name="dotlessi" unicode="&#x131;" 
d="M377 1030v-1030h-207v1030h207z" />
    <glyph glyph-name="IJ" unicode="&#x132;" horiz-adv-x="1485" 
d="M377 1600v-1600h-207v1600h207zM1329 343q0 -166 -91 -258q-97 -98 -235 -98q-137 0 -233.5 97.5t-96.5 259.5l164 64q28 -152 71 -187q32 -27 86 -27h4q57 1 94 37q30 31 30 121v1248h207v-1257z" />
    <glyph glyph-name="ij" unicode="&#x133;" horiz-adv-x="1102" 
d="M374 1029v-1029h-207v1029h207zM373 1410q43 -42 43 -103t-43 -103t-103 -42q-59 0 -102 42t-43 103t43 103t102 42q60 0 103 -42zM590 -10q112 12 112 70v969h207v-967q0 -253 -319 -278v206zM908 1410q43 -42 43 -103t-43 -103t-103 -42q-59 0 -102 42t-43 103t43 103
t102 42q60 0 103 -42z" />
    <glyph glyph-name="Jcircumflex" unicode="&#x134;" horiz-adv-x="937" 
d="M781 343q0 -166 -91 -258q-97 -98 -235 -98q-137 0 -233.5 97.5t-96.5 259.5l164 64q28 -152 71 -187q32 -27 86 -27h4q57 1 94 37q30 31 30 121v1248h207v-1257zM743 1749l-92 82l-89 -82h-219l233 238h147l241 -238h-221z" />
    <glyph glyph-name="jcircumflex" unicode="&#x135;" horiz-adv-x="685" 
d="M151 -10q112 12 112 70v969h207v-967q0 -253 -319 -278v206zM443 1149l-92 82l-89 -82h-219l233 238h147l241 -238h-221z" />
    <glyph glyph-name="Kcommaaccent" unicode="&#x136;" horiz-adv-x="1206" 
d="M357 755v-755h-207v1600h207v-504l378 504h262l-491 -658l611 -942h-251l-495 772zM670 17l-23 -61q74 -38 95 -89q4 -14 7 -27t3 -26q0 -43 -31 -81q-49 -59 -144 -73q-19 -3 -44 -3q-58 0 -149 15l35 126q57 -26 93 -26q6 0 11 1q31 4 40 35q3 7 3 15q0 4 -1 8
q-6 28 -92 56l48 130h149z" />
    <glyph glyph-name="kcommaaccent" unicode="&#x137;" horiz-adv-x="944" 
d="M785 1029l-279 -344l388 -685h-247l-280 513l-9 -11v-502h-208v1415h208v-582l160 196h267zM624 17l-23 -61q74 -38 95 -89q4 -14 7 -27t3 -26q0 -43 -31 -81q-49 -59 -144 -73q-19 -3 -44 -3q-58 0 -149 15l35 126q57 -26 93 -26q6 0 11 1q31 4 40 35q3 7 3 15q0 4 -1 8
q-6 28 -92 56l48 130h149z" />
    <glyph glyph-name="kgreenlandic" unicode="&#x138;" horiz-adv-x="943" 
d="M784 1030l-278 -345l387 -685h-247l-280 514l-9 -11v-503h-207v1030h207v-197l160 197h267z" />
    <glyph glyph-name="Lacute" unicode="&#x139;" horiz-adv-x="1019" 
d="M150 0v1600h207v-1392h572v-208h-779zM600 1937h189l-204 -279h-148z" />
    <glyph glyph-name="lacute" unicode="&#x13a;" horiz-adv-x="508" 
d="M359 1601v-1601h-208v1601h208zM300 1937h189l-204 -279h-148z" />
    <glyph glyph-name="Lcommaaccent" unicode="&#x13b;" horiz-adv-x="1019" 
d="M487 0h-337v1600h207v-1392h572v-208h-293l-17 -44q74 -38 95 -89q4 -14 7 -27t3 -26q0 -43 -31 -81q-49 -59 -144 -73q-19 -3 -44 -3q-58 0 -149 15l35 126q57 -26 93 -26q6 0 11 1q31 4 40 35q3 7 3 15q0 4 -1 8q-6 28 -92 56z" />
    <glyph glyph-name="lcommaaccent" unicode="&#x13c;" horiz-adv-x="508" 
d="M187 0h-36v1601h208v-1601h-23l-17 -44q74 -38 95 -89q4 -14 7 -27t3 -26q0 -43 -31 -81q-49 -59 -144 -73q-19 -3 -44 -3q-58 0 -149 15l35 126q57 -26 93 -26q6 0 11 1q31 4 40 35q3 7 3 15q0 4 -1 8q-6 28 -92 56z" />
    <glyph glyph-name="Lcaron" unicode="&#x13d;" horiz-adv-x="956" 
d="M127 0v1600h208v-1392h562v-208h-770zM611 1363q-42 42 -42 103q0 60 42.5 102t102.5 42q59 0 102 -42t43 -102q0 -32 -12 -62l-108 -219h-189z" />
    <glyph glyph-name="lcaron" unicode="&#x13e;" horiz-adv-x="679" 
d="M335 1600v-1600h-208v1600h208zM411 1363q-42 42 -42 103q0 60 42.5 102t102.5 42q59 0 102 -42t43 -102q0 -32 -12 -62l-108 -219h-189z" />
    <glyph glyph-name="Ldot" unicode="&#x13f;" horiz-adv-x="956" 
d="M127 0v1600h208v-1392h562v-208h-770zM816 893.5q39 -38.5 39 -93.5t-39 -93.5t-93 -38.5t-93.5 38.5t-39.5 93.5t39.5 93.5t93.5 38.5t93 -38.5z" />
    <glyph glyph-name="ldot" unicode="&#x140;" horiz-adv-x="595" 
d="M320 1600v-1600h-208v1600h208zM605.5 893.5q39.5 -38.5 39.5 -93.5t-39.5 -93.5t-92.5 -38.5q-55 0 -94 38.5t-39 93.5t39 93.5t94 38.5q53 0 92.5 -38.5z" />
    <glyph glyph-name="Lslash" unicode="&#x141;" horiz-adv-x="1038" 
d="M419 919l419 341v-258l-419 -341v-453h562v-208h-770v491l-211 -171v258l211 171v851h208v-681z" />
    <glyph glyph-name="lslash" unicode="&#x142;" horiz-adv-x="517" 
d="M154 835v765h208v-596l155 126v-258l-155 -127v-745h-208v576l-154 -126v258z" />
    <glyph glyph-name="Nacute" unicode="&#x143;" horiz-adv-x="1357" 
d="M150 1600h189l660 -1142v1142h208v-1600h-181l-669 1156v-1156h-207v1600zM739 1978h252l-272 -279h-197z" />
    <glyph glyph-name="nacute" unicode="&#x144;" horiz-adv-x="1139" 
d="M358 753v-753h-208v1029h208v-120q65 176 261 176q167 0 265.5 -118.5t101.5 -297.5v-669h-207v661q0 89 -65 152.5t-155 63.5q-89 0 -154 -62q-36 -37 -47 -62zM629 1407h252l-272 -279h-197z" />
    <glyph glyph-name="Ncommaaccent" unicode="&#x145;" horiz-adv-x="1357" 
d="M150 1600h189l660 -1142v1142h208v-1600h-181l-669 1156v-1156h-207v1600zM781 17l-23 -61q74 -38 95 -89q4 -14 7 -27t3 -26q0 -43 -31 -81q-49 -59 -144 -73q-19 -3 -44 -3q-58 0 -149 15l35 126q57 -26 93 -26q6 0 11 1q31 4 40 35q3 7 3 15q0 4 -1 8q-6 28 -92 56
l48 130h149z" />
    <glyph glyph-name="ncommaaccent" unicode="&#x146;" horiz-adv-x="1139" 
d="M358 753v-753h-208v1029h208v-120q65 176 261 176q167 0 265.5 -118.5t101.5 -297.5v-669h-207v661q0 89 -65 152.5t-155 63.5q-89 0 -154 -62q-36 -37 -47 -62zM670 17l-23 -61q74 -38 95 -89q4 -14 7 -27t3 -26q0 -43 -31 -81q-49 -59 -144 -73q-19 -3 -44 -3
q-58 0 -149 15l35 126q57 -26 93 -26q6 0 11 1q31 4 40 35q3 7 3 15q0 4 -1 8q-6 28 -92 56l48 130h149z" />
    <glyph glyph-name="Ncaron" unicode="&#x147;" horiz-adv-x="1357" 
d="M150 1600h189l660 -1142v1142h208v-1600h-181l-669 1156v-1156h-207v1600zM989 1987l-241 -238h-147l-233 238h219l89 -82l92 82h221z" />
    <glyph glyph-name="ncaron" unicode="&#x148;" horiz-adv-x="1139" 
d="M358 753v-753h-208v1029h208v-120q65 176 261 176q167 0 265.5 -118.5t101.5 -297.5v-669h-207v661q0 89 -65 152.5t-155 63.5q-89 0 -154 -62q-36 -37 -47 -62zM879 1416l-241 -238h-147l-233 238h219l89 -82l92 82h221z" />
    <glyph glyph-name="napostrophe" unicode="&#x149;" horiz-adv-x="1139" 
d="M358 753v-753h-208v1029h208v-120q65 176 261 176q167 0 265.5 -118.5t101.5 -297.5v-669h-207v661q0 89 -65 152.5t-155 63.5q-89 0 -154 -62q-36 -37 -47 -62zM-89 1363q-42 42 -42 103q0 60 42.5 102t102.5 42q59 0 102 -42t43 -102q0 -32 -12 -62l-108 -219h-189z
" />
    <glyph glyph-name="Eng" unicode="&#x14a;" horiz-adv-x="1357" 
d="M1000 45l-643 1111v-1156h-207v1600h189l659 -1141v536h1v605h208v-1600h-4q-8 -232 -213 -333l-112 122q123 111 123 226q0 20 -1 30z" />
    <glyph glyph-name="eng" unicode="&#x14b;" horiz-adv-x="1136" 
d="M778 626v35q0 89 -65 152.5t-154 63.5t-154 -62q-37 -37 -48 -62v-753h-207v1030h207v-121q56 176 242 176q146 0 264.5 -118.5t121.5 -297.5v-669h-5q-17 -200 -203 -338l-127 127q112 78 127 239v598h1z" />
    <glyph glyph-name="Omacron" unicode="&#x14c;" horiz-adv-x="1889" 
d="M1523 1381q240 -240 240 -579t-240 -579t-579 -240t-579 240t-240 579t240 579t579 240t579 -240zM944 1412q-253 0 -431.5 -178.5t-178.5 -431.5t179 -432t431 -179q253 0 431.5 179t178.5 432t-178.5 431.5t-431.5 178.5zM661 2008h567v-207h-567v207z" />
    <glyph glyph-name="omacron" unicode="&#x14d;" horiz-adv-x="1318" 
d="M659 1113q236 0 402.5 -167t166.5 -403t-166.5 -403t-402.5 -167q-235 0 -402 167t-167 403t167 403t402 167zM406.5 795q-104.5 -105 -104.5 -252q0 -148 104.5 -252t252.5 -104t252.5 104t104.5 252q0 147 -104.5 252t-252.5 105t-252.5 -105zM376 1437h567v-207h-567
v207z" />
    <glyph glyph-name="Obreve" unicode="&#x14e;" horiz-adv-x="1889" 
d="M1523 1381q240 -240 240 -579t-240 -579t-579 -240t-579 240t-240 579t240 579t579 240t579 -240zM944 1412q-253 0 -431.5 -178.5t-178.5 -431.5t179 -432t431 -179q253 0 431.5 179t178.5 432t-178.5 431.5t-431.5 178.5zM856 1984q11 -62 26 -77q26 -26 63 -26
q36 0 62 27q15 14 25 76h190q-22 -123 -80 -182q-81 -82 -197 -82q-117 0 -198 82q-63 63 -80 182h189z" />
    <glyph glyph-name="obreve" unicode="&#x14f;" horiz-adv-x="1318" 
d="M659 1113q236 0 402.5 -167t166.5 -403t-166.5 -403t-402.5 -167q-235 0 -402 167t-167 403t167 403t402 167zM406.5 795q-104.5 -105 -104.5 -252q0 -148 104.5 -252t252.5 -104t252.5 104t104.5 252q0 147 -104.5 252t-252.5 105t-252.5 -105zM571 1413q11 -62 26 -77
q26 -26 63 -26q36 0 62 27q15 14 25 76h190q-22 -123 -80 -182q-81 -82 -197 -82q-117 0 -198 82q-63 63 -80 182h189z" />
    <glyph glyph-name="Ohungarumlaut" unicode="&#x150;" horiz-adv-x="1889" 
d="M1523 1381q240 -240 240 -579t-240 -579t-579 -240t-579 240t-240 579t240 579t579 240t579 -240zM944 1412q-253 0 -431.5 -178.5t-178.5 -431.5t179 -432t431 -179q253 0 431.5 179t178.5 432t-178.5 431.5t-431.5 178.5zM967 2003l-221 -271h-185l91 271h315z
M1328 2003l-221 -271h-185l91 271h315z" />
    <glyph glyph-name="ohungarumlaut" unicode="&#x151;" horiz-adv-x="1318" 
d="M659 1113q236 0 402.5 -167t166.5 -403t-166.5 -403t-402.5 -167q-235 0 -402 167t-167 403t167 403t402 167zM406.5 795q-104.5 -105 -104.5 -252q0 -148 104.5 -252t252.5 -104t252.5 104t104.5 252q0 147 -104.5 252t-252.5 105t-252.5 -105zM682 1432l-221 -271h-185
l91 271h315zM1043 1432l-221 -271h-185l91 271h315z" />
    <glyph glyph-name="OE" unicode="&#x152;" horiz-adv-x="2258" 
d="M1488 1393q225 -237 237 -489h407v-207h-408q-13 -251 -238 -489h646v-208h-979q-112 -17 -244 -17q-339 0 -579 240t-240 579t240 579t579 240q133 0 245 -21h978v-207h-644zM1518 839q-11 228 -177 395q-65 65 -140 106q-37 20 -75 35q-100 37 -217 37
q-253 0 -431.5 -178.5t-178.5 -431.5t179 -432t431 -179q117 0 217 37q38 15 75 36q74 40 140 106q164 165 177 392q1 19 1 40q0 19 -1 37z" />
    <glyph glyph-name="oe" unicode="&#x153;" horiz-adv-x="2184" 
d="M1227 582q1 -19 1 -39q0 -24 -2 -48q5 -81 26 -109l486 487q-35 27 -157 27q-147 0 -251 -104q-91 -91 -103 -214zM1014 498q-2 22 -2 45q0 22 2 44q-14 119 -102 208q-105 105 -253 105t-252.5 -105t-104.5 -252q0 -148 104.5 -252t252.5 -104t253 104q88 88 102 207z
M1120 208q-26 -35 -58 -68q-167 -167 -403 -167q-235 0 -402 167t-167 403t167 403t402 167q236 0 403 -167q32 -33 58 -68q26 35 59 68q167 167 402 167q202 0 354 -122q25 -21 49 -45q10 -10 57 -63l-104 -105l-545 -545q52 -46 189 -46q148 0 253 104q13 14 53 62
l207 -74q-76 -105 -110 -139q-167 -167 -403 -167q-235 0 -402 167q-33 33 -59 68z" />
    <glyph glyph-name="Racute" unicode="&#x154;" horiz-adv-x="1171" 
d="M357 1392v-672h189q138 0 236.5 98.5t98.5 238.5q0 139 -98.5 237t-236.5 98h-189zM546 512h-189v-512h-207v1600h454q193 -26 326 -159q159 -160 159 -384q0 -226 -159 -386q-110 -110 -168 -124l355 -547h-251zM694 1978h252l-272 -279h-197z" />
    <glyph glyph-name="racute" unicode="&#x155;" horiz-adv-x="693" 
d="M357 890q116 157 285 165v-215q-113 -6 -180 -73q-101 -100 -105 -238v-529h-207v1029h207v-139zM457 1407h252l-272 -279h-197z" />
    <glyph glyph-name="Rcommaaccent" unicode="&#x156;" horiz-adv-x="1171" 
d="M357 1392v-672h189q138 0 236.5 98.5t98.5 238.5q0 139 -98.5 237t-236.5 98h-189zM546 512h-189v-512h-207v1600h454q193 -26 326 -159q159 -160 159 -384q0 -226 -159 -386q-110 -110 -168 -124l355 -547h-251zM753 -133q4 -14 7 -27t3 -26q0 -43 -31 -81
q-49 -59 -144 -73q-19 -3 -44 -3q-58 0 -149 15l35 126q57 -26 93 -26q6 0 11 1q31 4 40 35q3 7 3 15q0 4 -1 8q-6 28 -92 56l48 130q190 -59 221 -150z" />
    <glyph glyph-name="rcommaaccent" unicode="&#x157;" horiz-adv-x="693" 
d="M358 890q116 157 285 165v-215q-113 -6 -180 -73q-101 -100 -105 -238v-529h-207v1029h207v-139zM603 -133q4 -14 7 -27t3 -26q0 -43 -31 -81q-49 -59 -144 -73q-19 -3 -44 -3q-58 0 -149 15l35 126q57 -26 93 -26q6 0 11 1q31 4 40 35q3 7 3 15q0 4 -1 8q-6 28 -92 56
l48 130q190 -59 221 -150z" />
    <glyph glyph-name="Rcaron" unicode="&#x158;" horiz-adv-x="1171" 
d="M357 1392v-672h189q138 0 236.5 98.5t98.5 238.5q0 139 -98.5 237t-236.5 98h-189zM546 512h-189v-512h-207v1600h454q193 -26 326 -159q159 -160 159 -384q0 -226 -159 -386q-110 -110 -168 -124l355 -547h-251zM944 1987l-241 -238h-147l-233 238h219l89 -82l92 82h221
z" />
    <glyph glyph-name="rcaron" unicode="&#x159;" horiz-adv-x="693" 
d="M358 890q116 157 285 165v-215q-113 -6 -180 -73q-101 -100 -105 -238v-529h-207v1029h207v-139zM707 1416l-241 -238h-147l-233 238h219l89 -82l92 82h221z" />
    <glyph glyph-name="Sacute" unicode="&#x15a;" horiz-adv-x="1101" 
d="M557 821q-170 57 -275.5 162.5t-105.5 261.5q0 153 109.5 263t265.5 110q154 0 264 -109q62 -60 104 -191l-188 -74q-34 92 -62 120q-49 48 -118 48q-70 0 -119 -48.5t-49 -118.5t49 -119q55 -54 152 -99q188 -61 319 -192q147 -145 147 -352t-146.5 -353.5
t-352.5 -146.5q-207 0 -353 147q-117 117 -148 323l201 73q19 -177 93 -251q86 -86 207 -86t207 86t86 208q0 121 -86 207q-82 82 -201 131zM611 1978h252l-272 -279h-197z" />
    <glyph glyph-name="sacute" unicode="&#x15b;" horiz-adv-x="882" 
d="M358 221q37 -36 88 -36t87.5 36t36.5 89q0 51 -36 87q-25 25 -107 77q-112 61 -159 108q-82 82 -82 197q0 116 82 198.5t198 82.5t193 -78q55 -55 70 -123l-201 -58q-7 25 -14 33q-18 18 -48 18t-51.5 -21.5t-21.5 -51.5t21 -51q19 -18 86 -61q124 -68 180 -124
q97 -98 97 -233q0 -138 -96.5 -235.5t-234.5 -97.5q-137 0 -234 98q-67 67 -88 167l206 44q9 -46 28 -65zM511 1407h252l-272 -279h-197z" />
    <glyph glyph-name="Scircumflex" unicode="&#x15c;" horiz-adv-x="1101" 
d="M557 821q-170 57 -275.5 162.5t-105.5 261.5q0 153 109.5 263t265.5 110q154 0 264 -109q62 -60 104 -191l-188 -74q-34 92 -62 120q-49 48 -118 48q-70 0 -119 -48.5t-49 -118.5t49 -119q55 -54 152 -99q188 -61 319 -192q147 -145 147 -352t-146.5 -353.5
t-352.5 -146.5q-207 0 -353 147q-117 117 -148 323l201 73q19 -177 93 -251q86 -86 207 -86t207 86t86 208q0 121 -86 207q-82 82 -201 131zM640 1749l-92 82l-89 -82h-219l233 238h147l241 -238h-221z" />
    <glyph glyph-name="scircumflex" unicode="&#x15d;" horiz-adv-x="882" 
d="M358 221q37 -36 88 -36t87.5 36t36.5 89q0 51 -36 87q-25 25 -107 77q-112 61 -159 108q-82 82 -82 197q0 116 82 198.5t198 82.5t193 -78q55 -55 70 -123l-201 -58q-7 25 -14 33q-18 18 -48 18t-51.5 -21.5t-21.5 -51.5t21 -51q19 -18 86 -61q124 -68 180 -124
q97 -98 97 -233q0 -138 -96.5 -235.5t-234.5 -97.5q-137 0 -234 98q-67 67 -88 167l206 44q9 -46 28 -65zM540 1178l-92 82l-89 -82h-219l233 238h147l241 -238h-221z" />
    <glyph glyph-name="Scedilla" unicode="&#x15e;" horiz-adv-x="1101" 
d="M492 -14q-169 19 -294 144q-117 117 -148 323l201 73q19 -177 93 -251q86 -86 207 -86t207 86t86 208q0 121 -86 207q-82 82 -201 131q-170 57 -275.5 162.5t-105.5 261.5q0 153 109.5 263t265.5 110q154 0 264 -109q62 -60 104 -191l-188 -74q-34 92 -62 120
q-49 48 -118 48q-70 0 -119 -48.5t-49 -118.5t49 -119q55 -54 152 -99q188 -61 319 -192q147 -145 147 -352t-146 -353q-114 -114 -262 -139l-13 -35q74 -38 95 -89q4 -14 7 -27t3 -26q0 -43 -31 -81q-49 -59 -144 -73q-19 -3 -44 -3q-58 0 -149 15l35 126q57 -26 93 -26
q6 0 11 1q31 4 40 35q3 7 3 15q0 4 -1 8q-6 28 -92 56z" />
    <glyph glyph-name="scedilla" unicode="&#x15f;" horiz-adv-x="882" 
d="M391 -19q-102 16 -179 94q-67 67 -88 167l206 44q9 -46 28 -65q37 -36 88 -36t87.5 36t36.5 89q0 51 -36 87q-25 25 -107 77q-112 61 -159 108q-82 82 -82 197q0 116 82 198.5t198 82.5t193 -78q55 -55 70 -123l-201 -58q-7 25 -14 33q-18 18 -48 18t-51.5 -21.5
t-21.5 -51.5t21 -51q19 -18 86 -61q124 -68 180 -124q97 -98 97 -233q0 -138 -96 -235q-61 -62 -138 -84l-13 -35q74 -38 95 -89q4 -14 7 -27t3 -26q0 -43 -31 -81q-49 -59 -144 -73q-19 -3 -44 -3q-58 0 -149 15l35 126q57 -26 93 -26q6 0 11 1q31 4 40 35q3 7 3 15
q0 4 -1 8q-6 28 -92 56z" />
    <glyph glyph-name="Scaron" unicode="&#x160;" horiz-adv-x="1101" 
d="M557 821q-170 57 -275.5 162.5t-105.5 261.5q0 153 109.5 263t265.5 110q154 0 264 -109q62 -60 104 -191l-188 -74q-34 92 -62 120q-49 48 -118 48q-70 0 -119 -48.5t-49 -118.5t49 -119q55 -54 152 -99q188 -61 319 -192q147 -145 147 -352t-146.5 -353.5
t-352.5 -146.5q-207 0 -353 147q-117 117 -148 323l201 73q19 -177 93 -251q86 -86 207 -86t207 86t86 208q0 121 -86 207q-82 82 -201 131zM861 1987l-241 -238h-147l-233 238h219l89 -82l92 82h221z" />
    <glyph glyph-name="scaron" unicode="&#x161;" horiz-adv-x="882" 
d="M358 221q37 -36 88 -36t87.5 36t36.5 89q0 51 -36 87q-25 25 -107 77q-112 61 -159 108q-82 82 -82 197q0 116 82 198.5t198 82.5t193 -78q55 -55 70 -123l-201 -58q-7 25 -14 33q-18 18 -48 18t-51.5 -21.5t-21.5 -51.5t21 -51q19 -18 86 -61q124 -68 180 -124
q97 -98 97 -233q0 -138 -96.5 -235.5t-234.5 -97.5q-137 0 -234 98q-67 67 -88 167l206 44q9 -46 28 -65zM761 1416l-241 -238h-147l-233 238h219l89 -82l92 82h221z" />
    <glyph glyph-name="Tcommaaccent" unicode="&#x162;" horiz-adv-x="1054" 
d="M474 0h-51v1393h-373v207h954v-207h-373v-1393h-8l-17 -44q74 -38 95 -89q4 -14 7 -27t3 -26q0 -43 -31 -81q-49 -59 -144 -73q-19 -3 -44 -3q-58 0 -149 15l35 126q57 -26 93 -26q6 0 11 1q31 4 40 35q3 7 3 15q0 4 -1 8q-6 28 -92 56z" />
    <glyph glyph-name="tcommaaccent" unicode="&#x163;" horiz-adv-x="758" 
d="M326 0h-51v822h-185v207h185v386h207v-386h185v-207h-185v-822h-7l-17 -44q74 -38 95 -89q4 -14 7 -27t3 -26q0 -43 -31 -81q-49 -59 -144 -73q-19 -3 -44 -3q-58 0 -149 15l35 126q57 -26 93 -26q6 0 11 1q31 4 40 35q3 7 3 15q0 4 -1 8q-6 28 -92 56z" />
    <glyph glyph-name="Tcaron" unicode="&#x164;" horiz-adv-x="1054" 
d="M631 1393v-1393h-208v1393h-373v207h954v-207h-373zM838 1987l-241 -238h-147l-233 238h219l89 -82l92 82h221z" />
    <glyph glyph-name="tcaron" unicode="&#x165;" horiz-adv-x="758" 
d="M275 1029v386h207v-386h185v-207h-185v-822h-207v822h-185v207h185zM611 1363q-42 42 -42 103q0 60 42.5 102t102.5 42q59 0 102 -42t43 -102q0 -32 -12 -62l-108 -219h-189z" />
    <glyph glyph-name="Tbar" unicode="&#x166;" horiz-adv-x="1054" 
d="M423 903v490h-373v207h954v-207h-373v-490h218v-206h-218v-697h-208v697h-218v206h218z" />
    <glyph glyph-name="tbar" unicode="&#x167;" horiz-adv-x="637" 
d="M215 669v153h-185v207h185v386h207v-386h185v-207h-185v-153h185v-206h-185v-463h-207v463h-185v206h185z" />
    <glyph glyph-name="Utilde" unicode="&#x168;" horiz-adv-x="1388" 
d="M1030 1600h208v-1127q-27 -193 -159 -326q-160 -160 -385 -160t-384.5 159.5t-159.5 384.5v1069h208v-1069q0 -138 98.5 -236.5t237.5 -98.5q140 0 238 98t98 237v1069zM807 1888v-1q30 0 30 39q0 26 -13 69h186q-38 -220 -147 -252q-28 -8 -56 -8q-74 0 -133.5 57
t-87.5 57h-4q-30 -2 -30 -39q0 -25 14 -66h-187q39 220 149 252q28 8 56 8q73 0 135 -58t88 -58z" />
    <glyph glyph-name="utilde" unicode="&#x169;" horiz-adv-x="1162" 
d="M586 -14q-195 0 -314 119t-122 298v626h208v-618q0 -89 65 -153t162 -64q89 0 154.5 63.5t65.5 153.5v618h207v-626q-3 -179 -121 -298q-119 -119 -305 -119zM694 1317v-1q30 0 30 39q0 26 -13 69h186q-38 -220 -147 -252q-28 -8 -56 -8q-74 0 -133.5 57t-87.5 57h-4
q-30 -2 -30 -39q0 -25 14 -66h-187q39 220 149 252q28 8 56 8q73 0 135 -58t88 -58z" />
    <glyph glyph-name="Umacron" unicode="&#x16a;" horiz-adv-x="1388" 
d="M1030 1600h208v-1127q-27 -193 -159 -326q-160 -160 -385 -160t-384.5 159.5t-159.5 384.5v1069h208v-1069q0 -138 98.5 -236.5t237.5 -98.5q140 0 238 98t98 237v1069zM411 2008h567v-207h-567v207z" />
    <glyph glyph-name="umacron" unicode="&#x16b;" horiz-adv-x="1162" 
d="M586 -14q-195 0 -314 119t-122 298v626h208v-618q0 -89 65 -153t162 -64q89 0 154.5 63.5t65.5 153.5v618h207v-626q-3 -179 -121 -298q-119 -119 -305 -119zM298 1437h567v-207h-567v207z" />
    <glyph glyph-name="Ubreve" unicode="&#x16c;" horiz-adv-x="1388" 
d="M1030 1600h208v-1127q-27 -193 -159 -326q-160 -160 -385 -160t-384.5 159.5t-159.5 384.5v1069h208v-1069q0 -138 98.5 -236.5t237.5 -98.5q140 0 238 98t98 237v1069zM606 1984q11 -62 26 -77q26 -26 63 -26q36 0 62 27q15 14 25 76h190q-22 -123 -80 -182
q-81 -82 -197 -82q-117 0 -198 82q-63 63 -80 182h189z" />
    <glyph glyph-name="ubreve" unicode="&#x16d;" horiz-adv-x="1162" 
d="M586 -14q-195 0 -314 119t-122 298v626h208v-618q0 -89 65 -153t162 -64q89 0 154.5 63.5t65.5 153.5v618h207v-626q-3 -179 -121 -298q-119 -119 -305 -119zM493 1413q11 -62 26 -77q26 -26 63 -26q36 0 62 27q15 14 25 76h190q-22 -123 -80 -182q-81 -82 -197 -82
q-117 0 -198 82q-63 63 -80 182h189z" />
    <glyph glyph-name="Uring" unicode="&#x16e;" horiz-adv-x="1388" 
d="M1030 1600h208v-1127q-27 -193 -159 -326q-160 -160 -385 -160t-384.5 159.5t-159.5 384.5v1069h208v-1069q0 -138 98.5 -236.5t237.5 -98.5q140 0 238 98t98 237v1069zM814 1907q50 -50 50 -121q0 -70 -50 -120t-120 -50q-71 0 -121 50t-50 120q0 71 50 121t121 50
q70 0 120 -50zM696 1730q22 0 38 15.5t16 38.5q0 28 -16 43.5t-38 15.5q-28 0 -43.5 -15.5t-15.5 -43.5q0 -23 15.5 -38.5t43.5 -15.5z" />
    <glyph glyph-name="uring" unicode="&#x16f;" horiz-adv-x="1162" 
d="M586 -14q-195 0 -314 119t-122 298v626h208v-618q0 -89 65 -153t162 -64q89 0 154.5 63.5t65.5 153.5v618h207v-626q-3 -179 -121 -298q-119 -119 -305 -119zM701 1336q50 -50 50 -121q0 -70 -50 -120t-120 -50q-71 0 -121 50t-50 120q0 71 50 121t121 50q70 0 120 -50z
M583 1159q22 0 38 15.5t16 38.5q0 28 -16 43.5t-38 15.5q-28 0 -43.5 -15.5t-15.5 -43.5q0 -23 15.5 -38.5t43.5 -15.5z" />
    <glyph glyph-name="Uhungarumlaut" unicode="&#x170;" horiz-adv-x="1388" 
d="M1030 1600h208v-1127q-27 -193 -159 -326q-160 -160 -385 -160t-384.5 159.5t-159.5 384.5v1069h208v-1069q0 -138 98.5 -236.5t237.5 -98.5q140 0 238 98t98 237v1069zM717 2003l-221 -271h-185l91 271h315zM1078 2003l-221 -271h-185l91 271h315z" />
    <glyph glyph-name="uhungarumlaut" unicode="&#x171;" horiz-adv-x="1162" 
d="M586 -14q-195 0 -314 119t-122 298v626h208v-618q0 -89 65 -153t162 -64q89 0 154.5 63.5t65.5 153.5v618h207v-626q-3 -179 -121 -298q-119 -119 -305 -119zM604 1432l-221 -271h-185l91 271h315zM965 1432l-221 -271h-185l91 271h315z" />
    <glyph glyph-name="Uogonek" unicode="&#x172;" horiz-adv-x="1388" 
d="M668 -12q-208 8 -358 159q-160 159 -160 384v1069h208v-1069q0 -138 98.5 -236.5t237.5 -98.5q140 0 238 98t98 237v1069h208v-1127q-27 -193 -159 -326q-95 -95 -212 -133q-67 -86 -67 -140q0 -16 6 -29q15 -37 46 -37q37 0 96 51l58 -153q-122 -50 -185 -50
q-95 0 -154 66q-48 54 -48 130q0 17 2 35q8 52 47 101z" />
    <glyph glyph-name="uogonek" unicode="&#x173;" horiz-adv-x="1162" 
d="M608 -14h-22q-195 0 -314 119t-122 298v626h208v-618q0 -89 65 -153t162 -64q89 0 154.5 63.5t65.5 153.5v618h207v-626q-3 -179 -121 -298q-12 -12 -26 -24q-119 -127 -119 -200q0 -16 6 -29q15 -37 46 -37q37 0 96 51l58 -153q-122 -50 -185 -50q-95 0 -154 66
q-48 54 -48 130q0 17 2 35q7 48 41 92z" />
    <glyph glyph-name="Wcircumflex" unicode="&#x174;" horiz-adv-x="1686" 
d="M739 299v1301h207v-1301q10 -17 34 -42q65 -62 154 -62t154 63.5t65 152.5v1189h208v-1197q-4 -169 -125 -290q-125 -126 -302 -126q-176 0 -291 124q-116 -124 -292 -124q-177 0 -301 126q-122 120 -125 290v1197h207v-1189q0 -89 65 -152.5t154 -63.5q90 0 154 62
q25 25 34 42zM933 1749l-92 82l-89 -82h-219l233 238h147l241 -238h-221z" />
    <glyph glyph-name="wcircumflex" unicode="&#x175;" horiz-adv-x="1418" 
d="M604 305v724h207v-707q0 -55 37 -91.5t88 -36.5q123 0 123 153v682h208v-721q-5 -132 -97 -224q-97 -98 -234 -98q-138 0 -227 96q-91 -96 -228 -96q-138 0 -235 98q-92 92 -96 224v721h207v-682q0 -153 124 -153q51 0 88 36q31 31 35 75zM798 1178l-92 82l-89 -82h-219
l233 238h147l241 -238h-221z" />
    <glyph glyph-name="Ycircumflex" unicode="&#x176;" horiz-adv-x="1414" 
d="M603 642l-553 958h238l418 -724l419 724h239l-554 -958v-642h-207v642zM797 1749l-92 82l-89 -82h-219l233 238h147l241 -238h-221z" />
    <glyph glyph-name="ycircumflex" unicode="&#x177;" horiz-adv-x="1139" 
d="M403 -346h-219l274 575l-383 800h233l261 -563l261 563h232zM658 1178l-92 82l-89 -82h-219l233 238h147l241 -238h-221z" />
    <glyph glyph-name="Ydieresis" unicode="&#x178;" horiz-adv-x="1414" 
d="M603 642l-553 958h238l418 -724l419 724h239l-554 -958v-642h-207v642zM621 1967q43 -42 43 -102q0 -61 -43 -103t-102 -42q-60 0 -102.5 42t-42.5 103q0 60 42.5 102t102.5 42q59 0 102 -42zM997 1967q43 -42 43 -102q0 -61 -43 -103t-102 -42q-60 0 -102.5 42
t-42.5 103q0 60 42.5 102t102.5 42q59 0 102 -42z" />
    <glyph glyph-name="Zacute" unicode="&#x179;" horiz-adv-x="1463" 
d="M954 1393h-758v207h1116l-805 -1392h760v-208h-1117zM792 1978h252l-272 -279h-197z" />
    <glyph glyph-name="zacute" unicode="&#x17a;" horiz-adv-x="1125" 
d="M618 822h-423v207h780l-469 -821h459v-208h-815zM623 1407h252l-272 -279h-197z" />
    <glyph glyph-name="Zdotaccent" unicode="&#x17b;" horiz-adv-x="1463" 
d="M954 1393h-758v207h1116l-805 -1392h760v-208h-1117zM825 1969q39 -38 39 -94t-39 -94t-93 -38q-55 0 -94 38t-39 94t39 94t94 38q54 0 93 -38z" />
    <glyph glyph-name="zdotaccent" unicode="&#x17c;" horiz-adv-x="1125" 
d="M618 822h-423v207h780l-469 -821h459v-208h-815zM656 1398q39 -38 39 -94t-39 -94t-93 -38q-55 0 -94 38t-39 94t39 94t94 38q54 0 93 -38z" />
    <glyph glyph-name="Zcaron" unicode="&#x17d;" horiz-adv-x="1463" 
d="M954 1393h-758v207h1116l-805 -1392h760v-208h-1117zM1042 1987l-241 -238h-147l-233 238h219l89 -82l92 82h221z" />
    <glyph glyph-name="zcaron" unicode="&#x17e;" horiz-adv-x="1125" 
d="M618 822h-423v207h780l-469 -821h459v-208h-815zM873 1416l-241 -238h-147l-233 238h219l89 -82l92 82h221z" />
    <glyph glyph-name="longs" unicode="&#x17f;" horiz-adv-x="543" 
d="M332 0h-208v1215q8 127 97 219q95 88 218 88q62 0 189 -44l-69 -196q-88 38 -112 38q-41 0 -80 -35q-33 -33 -35 -79v-1206z" />
    <glyph glyph-name="florin" unicode="&#x192;" horiz-adv-x="541" 
d="M330 0h-1v-12q-12 -323 -391 -323v202q178 0 185 122v832h-92v208h92v186q7 127 97 219q95 88 217 88q63 0 189 -44l-69 -196q-88 38 -111 38q-41 0 -81 -35q-33 -33 -35 -79v-177h185v-208h-185v-821z" />
    <glyph glyph-name="Aringacute" unicode="&#x1fa;" horiz-adv-x="1346" 
d="M819 783l-145 382l-146 -382h291zM676 1522q15 0 28 13t13 28q0 25 -13 38t-28 13q-25 0 -38 -13t-13 -38q0 -15 13 -28t38 -13zM610 1734l104 146h359l-277 -188q51 -53 51 -125t-50 -138l545 -1429h-220l-226 576h-446l-230 -576h-221l551 1428q-54 67 -54 139
q0 73 52 124q36 37 62 43z" />
    <glyph glyph-name="aringacute" unicode="&#x1fb;" horiz-adv-x="1401" 
d="M1042 466v152q-18 97 -96 176q-105 104 -252 104q-148 0 -252.5 -104t-104.5 -252q0 -147 104.5 -251.5t252.5 -104.5q147 0 252 104q78 79 96 176zM690 1159q22 0 38 15.5t16 38.5q0 28 -16 43.5t-38 15.5q-28 0 -43.5 -15.5t-15.5 -43.5q0 -23 15.5 -38.5t43.5 -15.5z
M810 1097q128 -33 232 -140v72h208v-1030h-208v129q-150 -155 -348 -155q-236 0 -402.5 166.5t-166.5 402.5t167 403q118 118 273 152q-48 50 -48 118q0 71 50 121q28 28 62 40h-73l217 279h252l-272 -279h-6q33 -12 61 -40q50 -50 50 -121q0 -69 -48 -118z" />
    <glyph glyph-name="AEacute" unicode="&#x1fc;" horiz-adv-x="1715" 
d="M1591 1600v-207h-655v-489h655v-207h-655v-489h655v-208h-862v566h-194l-242 -566h-253l689 1548v52h862zM729 1028l-110 -255h110v255zM876 1978h252l-272 -279h-197z" />
    <glyph glyph-name="aeacute" unicode="&#x1fd;" horiz-adv-x="2142" 
d="M972 714q-24 43 -62 81q-104 104 -252 104q-147 0 -251.5 -104t-104.5 -252t104.5 -252t251.5 -104q148 0 252 105q39 38 62 80q27 47 36 95v152q-9 48 -36 95zM1804 736l-59 59q-104 104 -252 104t-252 -104q-22 -22 -26 -28v-31h589zM1008 992v38h207q56 82 278 82
q236 0 403 -167q148 -149 156 -417l-837 1v-210q4 -6 25 -27q105 -105 253 -105t252 105q19 19 63 73l202 -71q-59 -98 -114 -153q-167 -166 -403 -166q-222 0 -278 52v-27h-207v95q-150 -120 -350 -120q-235 0 -401.5 166.5t-166.5 401.5q0 236 166.5 402.5t401.5 166.5
q200 0 350 -120zM1132 1407h252l-272 -279h-197z" />
    <glyph glyph-name="Oslashacute" unicode="&#x1fe;" horiz-adv-x="1889" 
d="M1106 1396q-41 16 -162 16q-253 0 -431.5 -178.5t-178.5 -431.5t179 -432q65 -65 81 -74zM781 208q42 -17 163 -17q253 0 431.5 179t178.5 432t-178 432q-65 65 -82 74zM1383 1498q51 -28 141 -116q239 -241 239 -580t-240 -579t-579 -240q-164 0 -251 35l-80 -173
l-189 88l81 173q-51 28 -140 117q-240 240 -240 579t240 579t579 240q164 0 251 -35l81 173l188 -88zM1005 1978h252l-272 -279h-197z" />
    <glyph glyph-name="oslashacute" unicode="&#x1ff;" horiz-adv-x="1317" 
d="M744 898q-5 2 -86 2q-147 0 -251.5 -104.5t-104.5 -251.5q0 -148 93 -251zM573 190q5 -2 85 -2q148 0 252.5 104t104.5 252q0 147 -105 252zM294 105l-37 37q-167 167 -167 402q0 236 166.5 402.5t401.5 166.5q134 0 194 -29l113 197l184 -95l-125 -202l37 -38
q166 -166 166 -402q0 -235 -166.5 -402t-402.5 -167q-133 0 -192 29l-114 -196l-185 89zM719 1407h252l-272 -279h-197z" />
    <glyph glyph-name="circumflex" unicode="&#x2c6;" horiz-adv-x="1066" 
d="M621 1178l-92 82l-89 -82h-219l233 238h147l241 -238h-221z" />
    <glyph glyph-name="caron" unicode="&#x2c7;" horiz-adv-x="1066" 
d="M842 1416l-241 -238h-147l-233 238h219l89 -82l92 82h221z" />
    <glyph glyph-name="uni02C9" unicode="&#x2c9;" horiz-adv-x="717" 
d="M75 1437h567v-207h-567v207z" />
    <glyph glyph-name="breve" unicode="&#x2d8;" horiz-adv-x="978" 
d="M399 1413q11 -62 26 -77q26 -26 63 -26q36 0 62 27q15 14 25 76h190q-22 -123 -80 -182q-81 -82 -197 -82q-117 0 -198 82q-63 63 -80 182h189z" />
    <glyph glyph-name="dotaccent" unicode="&#x2d9;" horiz-adv-x="516" 
d="M351 1398q39 -38 39 -94t-39 -94t-93 -38q-55 0 -94 38t-39 94t39 94t94 38q54 0 93 -38z" />
    <glyph glyph-name="ring" unicode="&#x2da;" horiz-adv-x="869" 
d="M556 1336q50 -50 50 -121q0 -70 -50 -120t-120 -50q-71 0 -121 50t-50 120q0 71 50 121t121 50q70 0 120 -50zM438 1159q22 0 38 15.5t16 38.5q0 28 -16 43.5t-38 15.5q-28 0 -43.5 -15.5t-15.5 -43.5q0 -23 15.5 -38.5t43.5 -15.5z" />
    <glyph glyph-name="ogonek" unicode="&#x2db;" horiz-adv-x="437" 
d="M347 104q-141 -144 -141 -223q0 -16 6 -29q15 -37 46 -37q37 0 96 51l58 -153q-122 -50 -185 -50q-95 0 -154 66q-48 54 -48 130q0 17 2 35q19 129 235 237z" />
    <glyph glyph-name="tilde" unicode="&#x2dc;" horiz-adv-x="931" 
d="M578 1317v-1q30 0 30 39q0 26 -13 69h186q-38 -220 -147 -252q-28 -8 -56 -8q-74 0 -133.5 57t-87.5 57h-4q-30 -2 -30 -39q0 -25 14 -66h-187q39 220 149 252q28 8 56 8q73 0 135 -58t88 -58z" />
    <glyph glyph-name="hungarumlaut" unicode="&#x2dd;" horiz-adv-x="817" 
d="M431 1432l-221 -271h-185l91 271h315zM792 1432l-221 -271h-185l91 271h315z" />
    <glyph glyph-name="tonos" unicode="&#x384;" horiz-adv-x="669" 
d="M317 1407h252l-272 -279h-197z" />
    <glyph glyph-name="dieresistonos" unicode="&#x385;" horiz-adv-x="887" 
d="M805 1406.5q36 -34.5 36 -83.5q0 -51 -36 -86t-84 -35q-49 0 -85 35t-36 86q0 49 36 83.5t85 34.5q48 0 84 -34.5zM278.5 1406.5q35.5 -34.5 35.5 -83.5q0 -51 -35.5 -86t-83.5 -35q-50 0 -85.5 35t-35.5 86q0 49 35.5 83.5t85.5 34.5q48 0 83.5 -34.5zM447 1516h203
l-176 -338h-159z" />
    <glyph glyph-name="Alphatonos" unicode="&#x386;" horiz-adv-x="1376" 
d="M377 1407h252l-272 -279h-197zM925 773l-137 375l-136 -375h273zM844 1600l582 -1600h-220l-206 566h-424l-205 -566h-221l582 1600h112z" />
    <glyph glyph-name="anoteleia" unicode="&#x387;" horiz-adv-x="389" 
d="M288 1131.5q39 -38.5 39 -93.5q0 -56 -39 -94t-93 -38t-93.5 38t-39.5 94q0 55 39.5 93.5t93.5 38.5t93 -38.5z" />
    <glyph glyph-name="Epsilontonos" unicode="&#x388;" horiz-adv-x="1556" 
d="M317 1407h252l-272 -279h-197zM1816 1600v-207h-655v-489h655v-207h-655v-489h655v-208h-862v1600h862z" />
    <glyph glyph-name="Etatonos" unicode="&#x389;" horiz-adv-x="1627" 
d="M317 1407h252l-272 -279h-197zM1161 662v-662h-207v1600h207v-731h494v731h207v-1600h-207v662h-494z" />
    <glyph glyph-name="Iotatonos" unicode="&#x38a;" horiz-adv-x="1150" 
d="M317 1407h252l-272 -279h-197zM1012 1600v-1600h-208v1600h208z" />
    <glyph glyph-name="Omicrontonos" unicode="&#x38c;" horiz-adv-x="2333" 
d="M317 1407h252l-272 -279h-197zM1858 1381q240 -240 240 -579t-240 -579t-579 -240t-579 240t-240 579t240 579t579 240t579 -240zM1279 1412q-253 0 -431.5 -178.5t-178.5 -431.5t179 -432t431 -179q253 0 431.5 179t178.5 432t-178.5 431.5t-431.5 178.5z" />
    <glyph glyph-name="Upsilontonos" unicode="&#x38e;" horiz-adv-x="1933" 
d="M317 1407h252l-272 -279h-197zM1407 642l-553 958h238l418 -724l419 724h239l-554 -958v-642h-207v642z" />
    <glyph glyph-name="Omegatonos" unicode="&#x38f;" horiz-adv-x="1910" 
d="M267 1407h252l-272 -279h-197zM663 207q-51 32 -124 101q-204 190 -204 470q0 371 193 596.5t513 225.5h15q319 0 512.5 -225.5t193.5 -596.5q0 -280 -204 -470q-74 -69 -125 -101h235v-207h-518v194q130 53 267 198.5t137 385.5q0 292 -137.5 460t-366.5 168h-4
q-229 0 -366.5 -168t-137.5 -460q0 -240 137.5 -385.5t267.5 -198.5v-194h-519v207h235z" />
    <glyph glyph-name="iotadieresistonos" unicode="&#x390;" horiz-adv-x="535" 
d="M371 1030v-1030h-207v1030h207zM615 1406.5q36 -34.5 36 -83.5q0 -51 -36 -86t-84 -35q-49 0 -85 35t-36 86q0 49 36 83.5t85 34.5q48 0 84 -34.5zM88.5 1406.5q35.5 -34.5 35.5 -83.5q0 -51 -35.5 -86t-83.5 -35q-50 0 -85.5 35t-35.5 86q0 49 35.5 83.5t85.5 34.5
q48 0 83.5 -34.5zM257 1516h203l-176 -338h-159z" />
    <glyph glyph-name="Alpha" unicode="&#x391;" horiz-adv-x="1376" 
d="M825 773l-137 375l-136 -375h273zM744 1600l582 -1600h-220l-206 566h-424l-205 -566h-221l582 1600h112z" />
    <glyph glyph-name="Beta" unicode="&#x392;" horiz-adv-x="1126" 
d="M474 1600q139 0 238 -98.5t99 -237.5q0 -143 -144 -177q104 -15 236.5 -148t132.5 -368t-165 -406q-155 -161 -311 -163v-2h-410v1600h324zM357 927v-719h203v3q64 4 159 103q105 108 105 257q0 147 -104.5 251.5t-251.5 104.5h-111zM357 1393v-253h135q46 4 79 35
q36 33 36 89t-37.5 92.5t-95.5 36.5h-117z" />
    <glyph glyph-name="Gamma" unicode="&#x393;" horiz-adv-x="922" 
d="M897 1600v-208h-562v-1392h-208v1600h770z" />
    <glyph glyph-name="uni0394" unicode="&#x394;" horiz-adv-x="1326" 
d="M55 1h-89l583 1599h188l589 -1600h-1271v1zM1029 208l-386 1045l-382 -1045h768z" />
    <glyph glyph-name="Epsilon" unicode="&#x395;" horiz-adv-x="1137" 
d="M1012 1600v-207h-655v-489h655v-207h-655v-489h655v-208h-862v1600h862z" />
    <glyph glyph-name="Zeta" unicode="&#x396;" horiz-adv-x="1463" 
d="M954 1393h-758v207h1116l-805 -1392h760v-208h-1117z" />
    <glyph glyph-name="Eta" unicode="&#x397;" horiz-adv-x="1208" 
d="M357 662v-662h-207v1600h207v-731h494v731h207v-1600h-207v662h-494z" />
    <glyph glyph-name="Theta" unicode="&#x398;" horiz-adv-x="1778" 
d="M1468 1381q240 -240 240 -579q0 -340 -240 -580t-579 -240t-579 240t-240 580q0 339 240 579t579 240t579 -240zM889 1412q-252 0 -431 -179t-179 -431q0 -253 179 -432t431 -179t431 179t179 432q0 252 -179 431t-431 179zM410 906h959v-208h-959v208z" />
    <glyph glyph-name="Iota" unicode="&#x399;" horiz-adv-x="484" 
d="M346 1600v-1600h-208v1600h208z" />
    <glyph glyph-name="Kappa" unicode="&#x39a;" horiz-adv-x="1206" 
d="M357 755v-755h-207v1600h207v-504l378 504h262l-491 -658l611 -942h-251l-495 772z" />
    <glyph glyph-name="Lambda" unicode="&#x39b;" horiz-adv-x="1360" 
d="M771 1600l589 -1600h-220l-463 1253l-457 -1252h-220l583 1599h188z" />
    <glyph glyph-name="Mu" unicode="&#x39c;" horiz-adv-x="1812" 
d="M388 1600l519 -897l517 897h189v-1600h-207v1156l-499 -864l-501 864v-1156h-207v1600h189z" />
    <glyph glyph-name="Nu" unicode="&#x39d;" horiz-adv-x="1357" 
d="M150 1600h189l660 -1142v1142h208v-1600h-181l-669 1156v-1156h-207v1600z" />
    <glyph glyph-name="Xi" unicode="&#x39e;" horiz-adv-x="1282" 
d="M160 906h959v-208h-959v208zM57 1600h1168v-208h-1168v208zM57 208h1168v-208h-1168v208z" />
    <glyph glyph-name="Omicron" unicode="&#x39f;" horiz-adv-x="1889" 
d="M1523 1381q240 -240 240 -579t-240 -579t-579 -240t-579 240t-240 579t240 579t579 240t579 -240zM944 1412q-253 0 -431.5 -178.5t-178.5 -431.5t179 -432t431 -179q253 0 431.5 179t178.5 432t-178.5 431.5t-431.5 178.5z" />
    <glyph glyph-name="Pi" unicode="&#x3a0;" horiz-adv-x="1260" 
d="M314 1392v-1392h-208v1600h1047v-1600h-208v1392h-631z" />
    <glyph glyph-name="Rho" unicode="&#x3a1;" horiz-adv-x="1145" 
d="M357 512v-512h-207v1600h454q193 -26 326 -159q159 -160 159 -384q0 -226 -159 -385.5t-384 -159.5h-189zM357 1392v-672h189q138 0 236.5 98.5t98.5 238.5q0 139 -98.5 237t-236.5 98h-189z" />
    <glyph glyph-name="Sigma" unicode="&#x3a3;" horiz-adv-x="1236" 
d="M27 1600h1182v-208h-898l488 -593l-488 -591h898v-208h-1182v206l502 593l-502 595v206z" />
    <glyph glyph-name="Tau" unicode="&#x3a4;" horiz-adv-x="1054" 
d="M631 1393v-1393h-208v1393h-373v207h954v-207h-373z" />
    <glyph glyph-name="Upsilon" unicode="&#x3a5;" horiz-adv-x="1414" 
d="M603 642l-553 958h238l418 -724l419 724h239l-554 -958v-642h-207v642z" />
    <glyph glyph-name="Phi" unicode="&#x3a6;" horiz-adv-x="1784" 
d="M787 434v707q-200 -5 -347 -108q-148 -105 -148 -246q0 -140 148 -244q147 -104 347 -109zM995 222v-222h-208v222q-278 7 -481 159q-227 166 -227 408q0 241 227 407q203 150 481 157v247h208v-247q279 -7 484 -157q226 -166 226 -407q0 -242 -226 -408
q-204 -152 -484 -159zM995 1141v-707q201 5 349 109t148 244q0 141 -148 246q-147 103 -349 108z" />
    <glyph glyph-name="Chi" unicode="&#x3a7;" horiz-adv-x="1347" 
d="M50 0l503 873l-419 727h238l300 -521l302 521h238l-421 -727l505 -873h-238l-386 667l-384 -667h-238z" />
    <glyph glyph-name="Psi" unicode="&#x3a8;" horiz-adv-x="1824" 
d="M1013 326v-326h-208v326q-278 8 -482 160q-215 166 -221 409v705h208v-708q0 -141 148 -245q147 -104 347 -109v1062h208v-1062q201 5 349 109t148 311h5v642h207v-709q-1 -240 -225 -406q-205 -151 -484 -159z" />
    <glyph glyph-name="uni03A9" unicode="&#x3a9;" horiz-adv-x="1723" 
d="M476 207q-51 32 -124 101q-204 190 -204 470q0 371 193 596.5t513 225.5h15q319 0 512.5 -225.5t193.5 -596.5q0 -280 -204 -470q-73 -69 -124 -101h234v-207h-518v194q130 53 267 198.5t137 385.5q0 292 -137.5 460t-366.5 168h-4q-229 0 -366.5 -168t-137.5 -460
q0 -240 137.5 -385.5t267.5 -198.5v-194h-519v207h235z" />
    <glyph glyph-name="Iotadieresis" unicode="&#x3aa;" horiz-adv-x="484" 
d="M346 1600v-1600h-208v1600h208zM156 1967q43 -42 43 -102q0 -61 -43 -103t-102 -42q-60 0 -102.5 42t-42.5 103q0 60 42.5 102t102.5 42q59 0 102 -42zM532 1967q43 -42 43 -102q0 -61 -43 -103t-102 -42q-60 0 -102.5 42t-42.5 103q0 60 42.5 102t102.5 42q59 0 102 -42
z" />
    <glyph glyph-name="Upsilondieresis" unicode="&#x3ab;" horiz-adv-x="1414" 
d="M603 642l-553 958h238l418 -724l419 724h239l-554 -958v-642h-207v642zM621 1967q43 -42 43 -102q0 -61 -43 -103t-102 -42q-60 0 -102.5 42t-42.5 103q0 60 42.5 102t102.5 42q59 0 102 -42zM997 1967q43 -42 43 -102q0 -61 -43 -103t-102 -42q-60 0 -102.5 42
t-42.5 103q0 60 42.5 102t102.5 42q59 0 102 -42z" />
    <glyph glyph-name="alphatonos" unicode="&#x3ac;" horiz-adv-x="1364" 
d="M911 795q-104 105 -252 105q-147 0 -251.5 -105t-104.5 -253q0 -147 104.5 -251t251.5 -104q148 0 253 104q76 76 78 229q0 193 -79 275zM1066 941l46 88h206l-138 -514l138 -515h-206l-50 144v-2q-166 -168 -403 -168q-234 0 -401 167t-167 401q0 237 167 403.5
t401 166.5q237 0 403 -167zM765 1407h252l-272 -279h-197z" />
    <glyph glyph-name="epsilontonos" unicode="&#x3ad;" horiz-adv-x="930" 
d="M488 833q-96 0 -140.5 -22t-44.5 -53q0 -68 42.5 -98t57.5 -34h282v-206h-284q-15 -3 -56.5 -33t-41.5 -88q0 -37 47 -71.5t136 -34.5q103 4 183 67l155 -118q-159 -161 -336 -161q-158 0 -272 86t-114 244q0 159 90 214q-90 54 -90 224q0 162 116 229t270 67
q172 0 336 -152l-163 -106q-75 46 -173 46zM524 1407h252l-272 -279h-197z" />
    <glyph glyph-name="etatonos" unicode="&#x3ae;" horiz-adv-x="1016" 
d="M310 753v-753h-208v1030h208v-130q75 184 276 184t274.5 -118.5t76.5 -296.5v-1014h-207v1005q0 90 -65 153.5t-154 63.5t-154 -63q-36 -36 -47 -61zM580 1407h252l-272 -279h-197z" />
    <glyph glyph-name="iotatonos" unicode="&#x3af;" horiz-adv-x="535" 
d="M371 1030v-1030h-207v1030h207zM328 1407h252l-272 -279h-197z" />
    <glyph glyph-name="upsilondieresistonos" unicode="&#x3b0;" horiz-adv-x="1161" 
d="M586 -13q-196 0 -314.5 118.5t-121.5 297.5v626h207v-618q0 -89 65 -152q66 -64 163 -64q89 0 154 63.5t65 152.5v618h207v-626q-3 -179 -121 -297q-119 -119 -304 -119zM928 1406.5q36 -34.5 36 -83.5q0 -51 -36 -86t-84 -35q-49 0 -85 35t-36 86q0 49 36 83.5t85 34.5
q48 0 84 -34.5zM401.5 1406.5q35.5 -34.5 35.5 -83.5q0 -51 -35.5 -86t-83.5 -35q-50 0 -85.5 35t-35.5 86q0 49 35.5 83.5t85.5 34.5q48 0 83.5 -34.5zM570 1516h203l-176 -338h-159z" />
    <glyph glyph-name="alpha" unicode="&#x3b1;" horiz-adv-x="1364" 
d="M911 795q-104 105 -252 105q-147 0 -251.5 -105t-104.5 -253q0 -147 104.5 -251t251.5 -104q148 0 253 104q76 76 78 229q0 193 -79 275zM1066 941l46 88h206l-138 -514l138 -515h-206l-50 144v-2q-166 -168 -403 -168q-234 0 -401 167t-167 401q0 237 167 403.5
t401 166.5q237 0 403 -167z" />
    <glyph glyph-name="beta" unicode="&#x3b2;" horiz-adv-x="1091" 
d="M344 1031q132 2 175 19t94 71t51 123q0 70 -48 117.5t-116 47.5q-66 0 -111 -50.5t-45 -144.5v-183zM344 827v-1169h-208v1567q0 173 103 284t261 111q157 0 267 -111t110 -265q0 -185 -236 -304q140 -2 239 -98q143 -153 143 -359q0 -209 -147 -356t-355 -147
q-68 0 -110 25l90 188q10 -1 20 -1q121 0 206 85t85 206q0 122 -85.5 215t-261.5 126z" />
    <glyph glyph-name="gamma" unicode="&#x3b3;" horiz-adv-x="1127" 
d="M456 50l-411 979h232l284 -677l289 677h232l-414 -974v-399h-212v394z" />
    <glyph glyph-name="delta" unicode="&#x3b4;" horiz-adv-x="1299" 
d="M293 542q0 -147 104.5 -251t251.5 -104q148 0 252 104t104 251q0 148 -104 253t-252 105q-147 0 -251.5 -105t-104.5 -253zM1078.5 918q138.5 -139 138.5 -376q0 -234 -165.5 -401t-402.5 -167q-234 0 -401 167t-167 401q0 237 167 403q146 146 293 162l-404 493h851
v-208h-400q179 -251 265.5 -293t225 -181z" />
    <glyph glyph-name="epsilon" unicode="&#x3b5;" horiz-adv-x="930" 
d="M488 833q-96 0 -140.5 -22t-44.5 -53q0 -68 42.5 -98t57.5 -34h282v-206h-284q-15 -3 -56.5 -33t-41.5 -88q0 -37 47 -71.5t136 -34.5q103 4 183 67l155 -118q-159 -161 -336 -161q-158 0 -272 86t-114 244q0 159 90 214q-90 54 -90 224q0 162 116 229t270 67
q172 0 336 -152l-163 -106q-75 46 -173 46z" />
    <glyph glyph-name="zeta" unicode="&#x3b6;" horiz-adv-x="956" 
d="M978 1485q-572 -575 -648 -956q-11 -57 -11 -105q0 -225 295 -235q318 -10 318 -267q-41 -222 -312 -231v213q102 0 104 37v3q0 36 -106 36q-505 11 -505 430q0 47 8 99q61 468 497 883h-466v208h826v-115z" />
    <glyph glyph-name="eta" unicode="&#x3b7;" horiz-adv-x="1016" 
d="M310 753v-753h-208v1030h208v-130q75 184 276 184t274.5 -118.5t76.5 -296.5v-1014h-207v1005q0 90 -65 153.5t-154 63.5t-154 -63q-36 -36 -47 -61z" />
    <glyph glyph-name="theta" unicode="&#x3b8;" horiz-adv-x="1318" 
d="M1015 787q0 294 -107.5 447t-248.5 153t-248.5 -153t-107.5 -447t107.5 -447t248.5 -153t248.5 153t107.5 447zM1227 787q0 -369 -163 -591t-404 -222t-405 221.5t-164 591.5q0 369 164 591t405 222t404 -222t163 -591zM354 891h611v-207h-611v207z" />
    <glyph glyph-name="iota" unicode="&#x3b9;" horiz-adv-x="535" 
d="M371 1030v-1030h-207v1030h207z" />
    <glyph glyph-name="kappa" unicode="&#x3ba;" horiz-adv-x="947" 
d="M851 1030l-279 -345l388 -685h-246l-283 518l-110 -122v-396h-208v1030h208v-309l265 309h265z" />
    <glyph glyph-name="lambda" unicode="&#x3bb;" horiz-adv-x="1092" 
d="M1034 0h-230l-259 549l-258 -549h-230l373 800l-289 616h231z" />
    <glyph glyph-name="uni03BC" unicode="&#x3bc;" horiz-adv-x="1110" 
d="M755 81q-90 -87 -208 -87q-172 0 -190 67v-404h-207v1372h207v-720q8 -18 36 -46q65 -62 154 -62t154 64q42 41 54 84v680h205v-1027h-205v79z" />
    <glyph glyph-name="nu" unicode="&#x3bd;" horiz-adv-x="1188" 
d="M541 0l-491 1029h234l309 -668l310 668h234l-492 -1029h-104z" />
    <glyph glyph-name="xi" unicode="&#x3be;" horiz-adv-x="1063" 
d="M238 143q-147 129 -147 340q0 316 299 461q-153 121 -153 281q20 375 464 375h288v-201h-258q-271 0 -271 -168v-7q0 -68 45.5 -112.5t132.5 -78.5l344 -1v-207l-333 3q-176 -37 -261.5 -130t-85.5 -215q0 -118 85 -190t386 -106t301 -291v-28q-44 -175 -320 -202v228
q111 0 112 16v3q0 62 -240.5 81.5t-387.5 148.5z" />
    <glyph glyph-name="omicron" unicode="&#x3bf;" horiz-adv-x="1318" 
d="M659 1113q236 0 402.5 -167t166.5 -403t-166.5 -403t-402.5 -167q-235 0 -402 167t-167 403t167 403t402 167zM406.5 795q-104.5 -105 -104.5 -252q0 -148 104.5 -252t252.5 -104t252.5 104t104.5 252q0 147 -104.5 252t-252.5 105t-252.5 -105z" />
    <glyph glyph-name="pi" unicode="&#x3c0;" horiz-adv-x="1299" 
d="M544 822v-822h-207v822h-269v208h1162v-208h-269v-822h-206v822h-211z" />
    <glyph glyph-name="rho" unicode="&#x3c1;" horiz-adv-x="1296" 
d="M312 623v-161q18 -95 95 -171q105 -105 253 -105q147 0 251.5 104.5t104.5 251.5q0 148 -104.5 253t-251.5 105q-148 0 -253 -105q-77 -78 -95 -172zM312 93v-438h-208v1018q46 176 183.5 306.5t372.5 130.5t401.5 -165.5t166.5 -402.5q0 -234 -166.5 -401t-401.5 -167
q-199 0 -348 119z" />
    <glyph glyph-name="sigma1" unicode="&#x3c2;" horiz-adv-x="1083" 
d="M281 147q-168 121 -168 336q0 206 143 359q154 171 485 187h263v-203h-213q-259 -8 -363 -115t-104 -228q0 -114 105.5 -183.5t334 -121t228.5 -250.5v-28q-43 -197 -321 -223v227q111 0 113 37v3q0 16 -167.5 49t-335.5 154z" />
    <glyph glyph-name="sigma" unicode="&#x3c3;" horiz-adv-x="1388" 
d="M305 542q0 -147 104.5 -251t251.5 -104q148 0 252 104t104 251q0 148 -104 253t-252 105q-147 0 -251.5 -105t-104.5 -253zM1177 822q52 -56 52 -280q0 -234 -165.5 -401t-402.5 -167q-234 0 -401 167t-167 401q0 237 167 403.5t401 166.5q176 0 297 -83h350v-207h-131z
" />
    <glyph glyph-name="tau" unicode="&#x3c4;" horiz-adv-x="1094" 
d="M650 821v-821h-206v821h-374v208h954v-208h-374z" />
    <glyph glyph-name="upsilon" unicode="&#x3c5;" horiz-adv-x="1161" 
d="M586 -13q-196 0 -314.5 118.5t-121.5 297.5v626h207v-618q0 -89 65 -152q66 -64 163 -64q89 0 154 63.5t65 152.5v618h207v-626q-3 -179 -121 -297q-119 -119 -304 -119z" />
    <glyph glyph-name="phi" unicode="&#x3c6;" horiz-adv-x="1319" 
d="M769 861l-1 -634q85 14 144 72q104 105 104 253q0 179 -150 265q-65 37 -97 44zM561 206v711q24 155 173 155q80 0 199 -52q295 -134 295 -468q0 -235 -166 -401q-145 -146 -287 -160v-331h-208v328q-155 8 -309 163q-167 166 -167 401q0 236 167 402q55 56 153 115
l71 -202q-54 -44 -73 -63q-105 -105 -105 -252q0 -148 104 -252q75 -75 153 -94z" />
    <glyph glyph-name="chi" unicode="&#x3c7;" horiz-adv-x="1241" 
d="M620 191l-324 -531h-239l443 728l-391 641h241l270 -443l270 443h240l-390 -641l443 -728h-240z" />
    <glyph glyph-name="psi" unicode="&#x3c8;" horiz-adv-x="1356" 
d="M786 206q77 19 152 94q104 104 104 252v477h213v-477q0 -235 -167 -401q-151 -152 -302 -162v-319h-214v319q-152 10 -303 162q-167 166 -167 401v477h213v-477q0 -148 104 -252q75 -75 153 -94v823h214v-823z" />
    <glyph glyph-name="omega" unicode="&#x3c9;" horiz-adv-x="1556" 
d="M1033 176q110 0 170.5 88t60.5 304q0 197 -110 461h179q143 -243 143 -461q0 -281 -110.5 -437.5t-320.5 -156.5q-212 0 -266 90q-55 -90 -266 -90t-322.5 156.5t-111.5 437.5q0 222 152 461h180q-120 -247 -120 -461q0 -216 61 -304t170 -88q102 0 153 103v539h206v-541
q29 -101 152 -101z" />
    <glyph glyph-name="iotadieresis" unicode="&#x3ca;" horiz-adv-x="535" 
d="M372 1030v-1030h-207v1030h207zM182 1396q43 -42 43 -102q0 -61 -43 -103t-102 -42q-60 0 -102.5 42t-42.5 103q0 60 42.5 102t102.5 42q59 0 102 -42zM558 1396q43 -42 43 -102q0 -61 -43 -103t-102 -42q-60 0 -102.5 42t-42.5 103q0 60 42.5 102t102.5 42q59 0 102 -42
z" />
    <glyph glyph-name="upsilondieresis" unicode="&#x3cb;" horiz-adv-x="1161" 
d="M586 -13q-196 0 -314.5 118.5t-121.5 297.5v626h207v-618q0 -89 65 -152q66 -64 163 -64q89 0 154 63.5t65 152.5v618h207v-626q-3 -179 -121 -297q-119 -119 -304 -119zM495 1396q43 -42 43 -102q0 -61 -43 -103t-102 -42q-60 0 -102.5 42t-42.5 103q0 60 42.5 102
t102.5 42q59 0 102 -42zM871 1396q43 -42 43 -102q0 -61 -43 -103t-102 -42q-60 0 -102.5 42t-42.5 103q0 60 42.5 102t102.5 42q59 0 102 -42z" />
    <glyph glyph-name="omicrontonos" unicode="&#x3cc;" horiz-adv-x="1318" 
d="M659 1113q236 0 402.5 -167t166.5 -403t-166.5 -403t-402.5 -167q-235 0 -402 167t-167 403t167 403t402 167zM406.5 795q-104.5 -105 -104.5 -252q0 -148 104.5 -252t252.5 -104t252.5 104t104.5 252q0 147 -104.5 252t-252.5 105t-252.5 -105zM720 1407h252l-272 -279
h-197z" />
    <glyph glyph-name="upsilontonos" unicode="&#x3cd;" horiz-adv-x="1161" 
d="M586 -13q-196 0 -314.5 118.5t-121.5 297.5v626h207v-618q0 -89 65 -152q66 -64 163 -64q89 0 154 63.5t65 152.5v618h207v-626q-3 -179 -121 -297q-119 -119 -304 -119zM641 1407h252l-272 -279h-197z" />
    <glyph glyph-name="omegatonos" unicode="&#x3ce;" horiz-adv-x="1556" 
d="M1033 176q110 0 170.5 88t60.5 304q0 197 -110 461h179q143 -243 143 -461q0 -281 -110.5 -437.5t-320.5 -156.5q-212 0 -266 90q-55 -90 -266 -90t-322.5 156.5t-111.5 437.5q0 222 152 461h180q-120 -247 -120 -461q0 -216 61 -304t170 -88q102 0 153 103v539h206v-541
q29 -101 152 -101zM838 1407h252l-272 -279h-197z" />
    <glyph glyph-name="afii10023" unicode="&#x401;" horiz-adv-x="1137" 
d="M1012 1600v-207h-655v-489h655v-207h-655v-489h655v-208h-862v1600h862zM495 1967q43 -42 43 -102q0 -61 -43 -103t-102 -42q-60 0 -102.5 42t-42.5 103q0 60 42.5 102t102.5 42q59 0 102 -42zM871 1967q43 -42 43 -102q0 -61 -43 -103t-102 -42q-60 0 -102.5 42
t-42.5 103q0 60 42.5 102t102.5 42q59 0 102 -42z" />
    <glyph glyph-name="afii10051" unicode="&#x402;" horiz-adv-x="1646" 
d="M648 883q144 175 349 175q239 0 399 -141q160 -121 160 -421q0 -299 -159 -430q-43 -38 -135 -92l-141 153q95 58 123 82q102 89 104 277q-2 186 -104 276q-107 94 -256 94t-245 -93q-87 -82 -95 -185v-578h-206v1392h-374v208h954v-208h-374v-509z" />
    <glyph glyph-name="afii10052" unicode="&#x403;" horiz-adv-x="956" 
d="M897 1600v-208h-562v-1392h-208v1600h770zM573 1978h252l-272 -279h-197z" />
    <glyph glyph-name="afii10053" unicode="&#x404;" horiz-adv-x="1781" 
d="M1229 906v-208h-906q9 -162 175 -328q179 -179 431 -179t431 179q96 96 156 253h220q-86 -259 -227 -400q-241 -241 -580 -241t-579 240t-240 580q0 339 240 579t579 240t580 -240q70 -71 177 -244h-245q-46 61 -81 96q-179 179 -431 179t-431 -179q-166 -166 -175 -327
h906z" />
    <glyph glyph-name="afii10054" unicode="&#x405;" horiz-adv-x="1101" 
d="M557 821q-170 57 -275.5 162.5t-105.5 261.5q0 153 109.5 263t265.5 110q154 0 264 -109q62 -60 104 -191l-188 -74q-34 92 -62 120q-49 48 -118 48q-70 0 -119 -48.5t-49 -118.5t49 -119q55 -54 152 -99q188 -61 319 -192q147 -145 147 -352t-146.5 -353.5
t-352.5 -146.5q-207 0 -353 147q-117 117 -148 323l201 73q19 -177 93 -251q86 -86 207 -86t207 86t86 208q0 121 -86 207q-82 82 -201 131z" />
    <glyph glyph-name="afii10055" unicode="&#x406;" 
d="M377 1600v-1600h-207v1600h207z" />
    <glyph glyph-name="afii10056" unicode="&#x407;" 
d="M378 1600v-1600h-207v1600h207zM188 1967q43 -42 43 -102q0 -61 -43 -103t-102 -42q-60 0 -102.5 42t-42.5 103q0 60 42.5 102t102.5 42q59 0 102 -42zM564 1967q43 -42 43 -102q0 -61 -43 -103t-102 -42q-60 0 -102.5 42t-42.5 103q0 60 42.5 102t102.5 42q59 0 102 -42
z" />
    <glyph glyph-name="afii10057" unicode="&#x408;" horiz-adv-x="937" 
d="M781 343q0 -166 -91 -258q-97 -98 -235 -98q-137 0 -233.5 97.5t-96.5 259.5l164 64q28 -152 71 -187q32 -27 86 -27h4q57 1 94 37q30 31 30 121v1248h207v-1257z" />
    <glyph glyph-name="afii10058" unicode="&#x409;" horiz-adv-x="2209" 
d="M1076 0v1392h-631v-1069q0 -138 -94 -233t-294 -95v208q113 0 148 34q33 33 33 97v1266h1046v-698h422q180 -4 297.5 -133t117.5 -312q0 -194 -117 -323.5t-298 -133.5h-630zM1284 694v-486h414q86 0 151 74t65 174q0 91 -65 164.5t-151 73.5h-414z" />
    <glyph glyph-name="afii10059" unicode="&#x40a;" horiz-adv-x="2085" 
d="M952 0v696h-631v-696h-208v1600h208v-696h631v696h208v-698h431q180 -4 297.5 -133t117.5 -312q0 -194 -117.5 -323.5t-297.5 -133.5h-639zM1160 694v-486h423q86 0 151 74t65 174q0 91 -65 164.5t-151 73.5h-423z" />
    <glyph glyph-name="afii10060" unicode="&#x40b;" horiz-adv-x="1646" 
d="M639 872q144 186 349 186q240 0 393 -144q151 -146 151 -444v-470h-215l1 479q0 194 -96 291q-92 91 -229 91h-13q-149 -4 -246 -98q-86 -82 -95 -186v-577h-206v1392h-374v208h954v-208h-374v-520z" />
    <glyph glyph-name="afii10061" unicode="&#x40c;" horiz-adv-x="1206" 
d="M357 755v-755h-207v1600h207v-504l378 504h262l-491 -658l611 -942h-251l-495 772zM573 1978h252l-272 -279h-197z" />
    <glyph glyph-name="uni040D" unicode="&#x40d;" horiz-adv-x="1541" 
d="M1417 1600v-1600h-208v1210l-864 -1210h-222v1600h208v-1242l886 1242h200zM939 1699h-197l-272 279h252z" />
    <glyph glyph-name="afii10062" unicode="&#x40e;" horiz-adv-x="1388" 
d="M489 73q-109 -84 -209 -84q-69 0 -182 70l100 178q86 -47 112 -47q10 0 19 3q34 10 173 223l110 178l-657 1006h243l529 -808l472 808h236q-786 -1403 -946 -1527zM607 1984q11 -62 26 -77q26 -26 63 -26q36 0 62 27q15 14 25 76h190q-22 -123 -80 -182q-81 -82 -197 -82
q-117 0 -198 82q-63 63 -80 182h189z" />
    <glyph glyph-name="afii10145" unicode="&#x40f;" horiz-adv-x="1316" 
d="M551 0h-449v1600h208v-1391h697v1391h207v-1600h-457v-345h-206v345z" />
    <glyph glyph-name="afii10017" unicode="&#x410;" horiz-adv-x="1376" 
d="M825 773l-137 375l-136 -375h273zM744 1600l582 -1600h-220l-206 566h-424l-205 -566h-221l582 1600h112z" />
    <glyph glyph-name="afii10018" unicode="&#x411;" horiz-adv-x="1213" 
d="M113 1600h770v-208h-562v-488h415q181 -4 298 -133t117 -312q0 -194 -117 -326.5t-298 -132.5h-623v1600zM321 696v-486h407q87 0 152 74t65 174q0 91 -65 164.5t-152 73.5h-407z" />
    <glyph glyph-name="afii10019" unicode="&#x412;" horiz-adv-x="1126" 
d="M474 1600q139 0 238 -98.5t99 -237.5q0 -143 -144 -177q104 -15 236.5 -148t132.5 -368t-165 -406q-155 -161 -311 -163v-2h-410v1600h324zM357 927v-719h203v3q64 4 159 103q105 108 105 257q0 147 -104.5 251.5t-251.5 104.5h-111zM357 1393v-253h135q46 4 79 35
q36 33 36 89t-37.5 92.5t-95.5 36.5h-117z" />
    <glyph glyph-name="afii10020" unicode="&#x413;" horiz-adv-x="956" 
d="M897 1600v-208h-562v-1392h-208v1600h770z" />
    <glyph glyph-name="afii10021" unicode="&#x414;" horiz-adv-x="1354" 
d="M962 215v1177h-395q16 -81 16 -259q0 -653 -247 -918h626zM1171 215h81v-560h-206v345h-816v-345h-207v560h43q310 356 310 918q0 166 -69 467h863z" />
    <glyph glyph-name="afii10022" unicode="&#x415;" horiz-adv-x="1137" 
d="M1012 1600v-207h-655v-489h655v-207h-655v-489h655v-208h-862v1600h862z" />
    <glyph glyph-name="afii10024" unicode="&#x416;" horiz-adv-x="2002" 
d="M1106 1030l397 570h253l-426 -616l688 -984h-253l-564 806l-95 -137v-669h-209v669l-96 137l-564 -806h-253l688 984l-425 616h252l398 -570v570h209v-570z" />
    <glyph glyph-name="afii10025" unicode="&#x417;" horiz-adv-x="1103" 
d="M578 701h-410v207h410q112 0 172 69t60 187q0 113 -79 177.5t-188 64.5q-195 0 -441 -182v235q199 148 420 148q211 0 355.5 -117t144.5 -314q0 -295 -113 -365q113 -57 113 -376q0 -198 -144.5 -316t-355.5 -118q-225 0 -420 157v299q213 -244 420 -244q112 0 200 61
t88 170q0 119 -60 188t-172 69z" />
    <glyph glyph-name="afii10026" unicode="&#x418;" horiz-adv-x="1541" 
d="M1417 1600v-1600h-208v1210l-864 -1210h-222v1600h208v-1242l886 1242h200z" />
    <glyph glyph-name="afii10027" unicode="&#x419;" horiz-adv-x="1541" 
d="M1417 1600v-1600h-208v1210l-864 -1210h-222v1600h208v-1242l886 1242h200zM682 1984q11 -62 26 -77q26 -26 63 -26q36 0 62 27q15 14 25 76h190q-22 -123 -80 -182q-81 -82 -197 -82q-117 0 -198 82q-63 63 -80 182h189z" />
    <glyph glyph-name="afii10028" unicode="&#x41a;" horiz-adv-x="1206" 
d="M357 755v-755h-207v1600h207v-504l378 504h262l-491 -658l611 -942h-251l-495 772z" />
    <glyph glyph-name="afii10029" unicode="&#x41b;" horiz-adv-x="1390" 
d="M445 323q0 -138 -94 -233t-294 -95v208q113 0 148 34q33 33 33 97v1266h1046v-1600h-208v1392h-631v-1069z" />
    <glyph glyph-name="afii10030" unicode="&#x41c;" horiz-adv-x="1812" 
d="M388 1600l519 -897l517 897h189v-1600h-207v1156l-499 -864l-501 864v-1156h-207v1600h189z" />
    <glyph glyph-name="afii10031" unicode="&#x41d;" horiz-adv-x="1208" 
d="M357 662v-662h-207v1600h207v-731h494v731h207v-1600h-207v662h-494z" />
    <glyph glyph-name="afii10032" unicode="&#x41e;" horiz-adv-x="1889" 
d="M1523 1381q240 -240 240 -579t-240 -579t-579 -240t-579 240t-240 579t240 579t579 240t579 -240zM944 1412q-253 0 -431.5 -178.5t-178.5 -431.5t179 -432t431 -179q253 0 431.5 179t178.5 432t-178.5 431.5t-431.5 178.5z" />
    <glyph glyph-name="afii10033" unicode="&#x41f;" horiz-adv-x="1260" 
d="M314 1392v-1392h-208v1600h1047v-1600h-208v1392h-631z" />
    <glyph glyph-name="afii10034" unicode="&#x420;" horiz-adv-x="1145" 
d="M357 512v-512h-207v1600h454q193 -26 326 -159q159 -160 159 -384q0 -226 -159 -385.5t-384 -159.5h-189zM357 1392v-672h189q138 0 236.5 98.5t98.5 238.5q0 139 -98.5 237t-236.5 98h-189z" />
    <glyph glyph-name="afii10035" unicode="&#x421;" horiz-adv-x="1642" 
d="M1388 381l155 -139q-284 -259 -601 -259q-339 0 -578 239t-239 578q0 338 239 578t578 240q317 0 601 -259l-155 -141q-214 190 -446 190q-251 0 -429.5 -178t-178.5 -430q0 -253 178.5 -431t429.5 -178q232 0 446 190z" />
    <glyph glyph-name="afii10036" unicode="&#x422;" horiz-adv-x="1054" 
d="M631 1393v-1393h-208v1393h-373v207h954v-207h-373z" />
    <glyph glyph-name="afii10037" unicode="&#x423;" horiz-adv-x="1388" 
d="M489 73q-109 -84 -209 -84q-69 0 -182 70l100 178q86 -47 112 -47q10 0 19 3q34 10 173 223l110 178l-657 1006h243l529 -808l472 808h236q-786 -1403 -946 -1527z" />
    <glyph glyph-name="afii10038" unicode="&#x424;" horiz-adv-x="1784" 
d="M787 434v707q-200 -5 -347 -108q-148 -105 -148 -246q0 -140 148 -244q147 -104 347 -109zM995 222v-222h-208v222q-278 7 -481 159q-227 166 -227 408q0 241 227 407q203 150 481 157v247h208v-247q279 -7 484 -157q226 -166 226 -407q0 -242 -226 -408
q-204 -152 -484 -159zM995 1141v-707q201 5 349 109t148 244q0 141 -148 246q-147 103 -349 108z" />
    <glyph glyph-name="afii10039" unicode="&#x425;" horiz-adv-x="1347" 
d="M50 0l503 873l-419 727h238l300 -521l302 521h238l-421 -727l505 -873h-238l-386 667l-384 -667h-238z" />
    <glyph glyph-name="afii10040" unicode="&#x426;" horiz-adv-x="1327" 
d="M1097 0h-984v1600h208v-1392h697v1392h207v-1386h79v-559h-207v345z" />
    <glyph glyph-name="afii10041" unicode="&#x427;" horiz-adv-x="1284" 
d="M985 700q-144 -157 -349 -157q-240 0 -391 145q-153 145 -153 443v469h215l-1 -478q0 -194 97 -291q91 -91 228 -91h15q147 5 245 98q86 82 94 186v576h207v-1600h-207v700z" />
    <glyph glyph-name="afii10042" unicode="&#x428;" horiz-adv-x="1826" 
d="M113 1600h208v-1391h488v1391h208v-1391h488v1391h208v-1600h-1600v1600z" />
    <glyph glyph-name="afii10043" unicode="&#x429;" horiz-adv-x="1821" 
d="M1584 0h-1471v1600h208v-1391h488v1391h208v-1391h488v1391h208v-1385h78v-560h-207v345z" />
    <glyph glyph-name="afii10044" unicode="&#x42a;" horiz-adv-x="1526" 
d="M377 1392h-354v208h561v-698h420q181 -4 298 -133t117 -312q0 -194 -117 -323.5t-298 -133.5h-627v1392zM584 694v-486h412q87 0 151.5 74t64.5 174q0 91 -64.5 164.5t-151.5 73.5h-412z" />
    <glyph glyph-name="afii10045" unicode="&#x42b;" horiz-adv-x="1597" 
d="M1494 1600v-1600h-208v1600h208zM105 0v1600h208v-698h429q180 -4 297.5 -133t117.5 -312q0 -194 -117.5 -323.5t-297.5 -133.5h-637zM313 694v-486h421q86 0 151 74t65 174q0 91 -65 164.5t-151 73.5h-421z" />
    <glyph glyph-name="afii10046" unicode="&#x42c;" horiz-adv-x="1213" 
d="M105 0v1600h208v-698h429q180 -4 297.5 -133t117.5 -312q0 -194 -117.5 -323.5t-297.5 -133.5h-637zM313 694v-486h421q86 0 151 74t65 174q0 91 -65 164.5t-151 73.5h-421z" />
    <glyph glyph-name="afii10047" unicode="&#x42d;" horiz-adv-x="1797" 
d="M1482 906q-9 161 -175 327q-179 179 -431 179t-431 -179q-35 -35 -81 -96h-248q111 174 180 244q241 240 580 240t579 -240t240 -579q0 -340 -240 -580t-579 -240t-580 241q-142 141 -226 400h218q60 -157 157 -253q179 -179 431 -179t431 179q166 166 175 328h-906v208
h906z" />
    <glyph glyph-name="afii10048" unicode="&#x42e;" horiz-adv-x="2268" 
d="M1378 1412q-252 0 -431 -179t-179 -431q0 -253 179 -432t431 -179q253 0 432 179t179 432q0 252 -179 431t-432 179zM564 696h-243v-696h-208v1600h208v-696h242q12 253 237 477q239 240 578 240q340 0 580 -240t240 -579q0 -340 -240 -580t-580 -240q-339 0 -578 241
q-223 222 -236 473z" />
    <glyph glyph-name="afii10049" unicode="&#x42f;" horiz-adv-x="1171" 
d="M661 1391q-138 0 -236.5 -97.5t-98.5 -236.5q0 -140 98.5 -238.5t236.5 -98.5h189v671h-189zM342 0h-251l355 547q-58 14 -169 125q-159 159 -159 385q0 224 159 384q133 132 327 159h453v-1600h-207v511h-182z" />
    <glyph glyph-name="afii10065" unicode="&#x430;" horiz-adv-x="1401" 
d="M1042 466v152q-18 97 -96 176q-105 104 -252 104q-148 0 -252.5 -104t-104.5 -252q0 -147 104.5 -251.5t252.5 -104.5q147 0 252 104q78 79 96 176zM1042 957v72h208v-1030h-208v129q-150 -155 -348 -155q-236 0 -402.5 166.5t-166.5 402.5t166.5 402.5t402.5 166.5
q198 0 348 -154z" />
    <glyph glyph-name="afii10066" unicode="&#x431;" horiz-adv-x="1368" 
d="M363 542q0 -147 104 -251t252 -104q147 0 251.5 104t104.5 251q0 148 -104.5 253t-251.5 105q-148 0 -252 -105t-104 -253zM329 956q163 156 390 156q236 0 402 -166.5t166 -403.5q0 -234 -165.5 -401t-402.5 -167q-235 0 -401 168q-149 147 -178.5 335t-29.5 342
q0 314 151 517q190 257 446 257q53 0 107 -11q123 -25 197 -25q163 0 184 46v-171q-54 -80 -178 -80q-82 0 -213 28q-43 9 -81 9q-176 0 -302 -187q-70 -103 -92 -246z" />
    <glyph glyph-name="afii10067" unicode="&#x432;" horiz-adv-x="927" 
d="M320 624h133v-2q125 6 156 37t31 66q0 34 -31 64.5t-156 36.5v-2h-133v-200zM320 408v-200h133v-2q125 6 156 37t31 65t-31 65t-156 37v-2h-133zM113 1029h468q84 0 175.5 -73.5t91.5 -230.5v-1q0 -148 -162 -209q162 -59 162 -206v-1q0 -158 -91.5 -233t-175.5 -75h-468
v1029z" />
    <glyph glyph-name="afii10068" unicode="&#x433;" horiz-adv-x="773" 
d="M320 821v-821h-207v1029h580v-208h-373z" />
    <glyph glyph-name="afii10069" unicode="&#x434;" horiz-adv-x="1123" 
d="M994 215h73v-560h-207v345h-596v-345h-207v560h110q-7 -7 -7 -8h1q170 171 170 528q0 75 -7 142q-5 40 -29 152h699v-814zM433 208h354v614h-247v-87q0 -395 -107 -527z" />
    <glyph glyph-name="afii10070" unicode="&#x435;" horiz-adv-x="1262" 
d="M470 233q52 -46 189 -46q148 0 253 104q13 14 53 62l207 -74q-76 -105 -110 -139q-167 -167 -403 -167q-235 0 -402 167t-167 403t167 403t402 167q202 0 354 -122q25 -21 49 -45q10 -10 57 -63l-104 -105zM816 873q-35 27 -157 27q-147 0 -251.5 -104.5t-104.5 -252.5
q0 -121 27 -157z" />
    <glyph glyph-name="afii10072" unicode="&#x436;" horiz-adv-x="1458" 
d="M833 722l264 307h265l-278 -344l387 -685h-246l-283 518l-109 -121v-397h-209v397l-109 121l-283 -518h-246l387 685l-278 344h265l264 -307v307h209v-307z" />
    <glyph glyph-name="afii10073" unicode="&#x437;" horiz-adv-x="930" 
d="M674 518q176 -45 176 -208q0 -133 -116.5 -222t-272.5 -89q-157 0 -273.5 89t-116.5 222v71h213v-71q0 -45 49 -82t128 -37q78 0 127 37t49 82q0 44 -44 78q-32 23 -64 52h-233v166h258q16 27 38 43q45 34 45 78t-49 81t-127 37q-79 0 -132 -39q-40 -31 -52 -122h-211
q17 185 125 268q113 85 270 85q156 0 272.5 -88.5t116.5 -221.5q0 -163 -176 -209z" />
    <glyph glyph-name="afii10074" unicode="&#x438;" horiz-adv-x="1078" 
d="M102 1029h207v-642l486 642h181v-1029h-206v651l-461 -608v-43h-207v1029z" />
    <glyph glyph-name="afii10075" unicode="&#x439;" horiz-adv-x="1078" 
d="M102 1029h207v-642l486 642h181v-1029h-206v651l-461 -608v-43h-207v1029zM451 1413q11 -62 26 -77q26 -26 63 -26q36 0 62 27q15 14 25 76h190q-22 -123 -80 -182q-81 -82 -197 -82q-117 0 -198 82q-63 63 -80 182h189z" />
    <glyph glyph-name="afii10076" unicode="&#x43a;" horiz-adv-x="947" 
d="M851 1029l-279 -344l388 -685h-246l-283 518l-110 -122v-396h-208v1029h208v-308l265 308h265z" />
    <glyph glyph-name="afii10077" unicode="&#x43b;" horiz-adv-x="1164" 
d="M1062 1029v-1029h-207v821h-480v-550q0 -251 -318 -277v205q112 13 112 70v760h893z" />
    <glyph glyph-name="afii10078" unicode="&#x43c;" horiz-adv-x="1160" 
d="M581 343l297 686h192v-1029h-207v464l-201 -464h-164l-200 464v-464h-207v1029h192z" />
    <glyph glyph-name="afii10079" unicode="&#x43d;" horiz-adv-x="1074" 
d="M984 0h-206v449h-480v-449h-207v1029h207v-372h480v372h206v-1029z" />
    <glyph glyph-name="afii10080" unicode="&#x43e;" horiz-adv-x="1318" 
d="M659 1113q236 0 402.5 -167t166.5 -403t-166.5 -403t-402.5 -167q-235 0 -402 167t-167 403t167 403t402 167zM406.5 795q-104.5 -105 -104.5 -252q0 -148 104.5 -252t252.5 -104t252.5 104t104.5 252q0 147 -104.5 252t-252.5 105t-252.5 -105z" />
    <glyph glyph-name="afii10081" unicode="&#x43f;" horiz-adv-x="1097" 
d="M309 821v-821h-207v1029h893v-1029h-206v821h-480z" />
    <glyph glyph-name="afii10082" unicode="&#x440;" horiz-adv-x="1375" 
d="M357 623v-161q19 -95 97 -172q104 -104 252 -104t252.5 104.5t104.5 252.5q0 147 -104.5 252t-252.5 105t-252 -105q-78 -77 -97 -172zM357 128v-474h-207v1375h207v-93q150 176 349 176q236 0 402.5 -166.5t166.5 -402.5t-166.5 -403t-402.5 -167q-199 0 -349 155z" />
    <glyph glyph-name="afii10083" unicode="&#x441;" horiz-adv-x="1262" 
d="M965 353l207 -74q-76 -105 -110 -139q-167 -167 -403 -167q-235 0 -402 167t-167 403t167 403t402 167q236 0 403 -167q34 -34 110 -137l-207 -76q-40 49 -54 63q-104 104 -252 104q-147 0 -251.5 -104.5t-104.5 -252.5q0 -147 104.5 -251.5t251.5 -104.5q148 0 253 104
q13 14 53 62z" />
    <glyph glyph-name="afii10084" unicode="&#x442;" horiz-adv-x="1135" 
d="M671 821v-821h-206v821h-374v208h954v-208h-374z" />
    <glyph glyph-name="afii10085" unicode="&#x443;" horiz-adv-x="1139" 
d="M403 -346h-219l274 575l-383 800h233l261 -563l261 563h232z" />
    <glyph glyph-name="afii10086" unicode="&#x444;" horiz-adv-x="2191" 
d="M1199 638v-192q20 -84 92 -155q104 -105 251 -105q148 0 252.5 104.5t104.5 251.5q0 148 -104.5 253t-252.5 105q-147 0 -251 -105q-72 -72 -92 -157zM991 446v192q-20 85 -92 157q-105 105 -252 105t-251.5 -105t-104.5 -253q0 -147 104.5 -251.5t251.5 -104.5t252 105
q72 71 92 155zM991 996v419h208v-419q149 114 343 114q237 0 403 -165.5t166 -402.5q0 -234 -166 -401t-403 -167q-195 0 -343 116v-420h-208v420q-148 -116 -344 -116q-236 0 -402 167t-166 401q0 237 166 402.5t402 165.5q195 0 344 -114z" />
    <glyph glyph-name="afii10087" unicode="&#x445;" horiz-adv-x="1031" 
d="M906 1029l-272 -470l322 -559h-239l-201 346l-200 -346h-241l323 559l-271 470h239l150 -257l149 257h241z" />
    <glyph glyph-name="afii10088" unicode="&#x446;" horiz-adv-x="1127" 
d="M873 0h-760v1030h207v-822h480v822h206v-815h73v-560h-206v345z" />
    <glyph glyph-name="afii10089" unicode="&#x447;" horiz-adv-x="1241" 
d="M931 488q-133 -161 -328 -161q-241 0 -382 147q-141 145 -141 441v114h216l-2 -123q0 -195 88 -292q82 -90 216 -90h15q146 5 232 96q79 82 86 187v222h207v-1029h-207v488z" />
    <glyph glyph-name="afii10090" unicode="&#x448;" horiz-adv-x="1387" 
d="M102 1029h208v-820h279v820h208v-820h280v820h207v-1029h-1182v1029z" />
    <glyph glyph-name="afii10091" unicode="&#x449;" horiz-adv-x="1430" 
d="M1178 0h-1054v1029h208v-820h279v820h208v-820h280v820h207v-814h79v-560h-207v345z" />
    <glyph glyph-name="afii10092" unicode="&#x44a;" horiz-adv-x="1242" 
d="M268 0v821h-234v208h440v-371h389v-4q82 -4 182 -91q106 -93 106 -234v-1q0 -140 -106 -233q-100 -88 -182 -95h-595zM474 208h261v-2q128 6 172 42q36 29 36 80q0 53 -36 83q-43 35 -172 41v-2h-261v-242z" />
    <glyph glyph-name="afii10093" unicode="&#x44b;" horiz-adv-x="1476" 
d="M320 208h365v-2q128 6 172 42q35 29 35 80q0 53 -35 83q-44 35 -172 41v-2h-365v-242zM1363 0h-207v1029h207v-1029zM113 0v1029h207v-371h492v-4q83 -4 182 -91q106 -93 106 -234v-1q0 -140 -106 -233q-99 -95 -182 -95h-699z" />
    <glyph glyph-name="afii10094" unicode="&#x44c;" horiz-adv-x="1075" 
d="M320 208h260v-2q129 6 172 42q36 29 36 80q0 53 -36 83q-43 35 -172 41v-2h-260v-242zM113 0v1029h207v-371h388v-4q82 -4 182 -91q106 -93 106 -234v-1q0 -140 -106 -233q-100 -95 -182 -95h-595z" />
    <glyph glyph-name="afii10095" unicode="&#x44d;" horiz-adv-x="1288" 
d="M991 527h-569v209h525q-6 4 -60 59q-104 105 -252 105q-147 0 -252 -105q-43 -43 -84 -131h-218q62 191 151 281q167 167 403 167q234 0 401 -166.5t167 -403.5q0 -234 -166.5 -401t-401.5 -167q-237 0 -402 167q-31 30 -138 156h282q119 -110 258 -110q148 0 252 104
q99 99 104 236z" />
    <glyph glyph-name="afii10096" unicode="&#x44e;" horiz-adv-x="1725" 
d="M720 542q0 -147 104.5 -251t252.5 -104q147 0 251.5 104t104.5 251q0 148 -104.5 253t-251.5 105q-148 0 -252.5 -105t-104.5 -253zM513 449h-193v-449h-207v1029h207v-372h196q14 143 160 288q166 167 401 167q236 0 402 -166.5t166 -403.5q0 -234 -166 -401t-402 -167
q-235 0 -401 168q-155 153 -163 307z" />
    <glyph glyph-name="afii10097" unicode="&#x44f;" horiz-adv-x="972" 
d="M651 822h-157v2q-128 -6 -170 -41q-37 -30 -37 -81q0 -52 37 -81q42 -36 170 -42v1h157v242zM857 1029v-1029h-206v373h-121l-3 -7l-53 -114l-117 -252h-229l180 386q-36 4 -123 81q-106 93 -106 234v1q0 141 106 233q100 88 182 94h490z" />
    <glyph glyph-name="afii10071" unicode="&#x451;" horiz-adv-x="1262" 
d="M470 233q52 -46 189 -46q148 0 253 104q13 14 53 62l207 -74q-76 -105 -110 -139q-167 -167 -403 -167q-235 0 -402 167t-167 403t167 403t402 167q202 0 354 -122q25 -21 49 -45q10 -10 57 -63l-104 -105zM816 873q-35 27 -157 27q-147 0 -251.5 -104.5t-104.5 -252.5
q0 -121 27 -157zM545 1396q43 -42 43 -102q0 -61 -43 -103t-102 -42q-60 0 -102.5 42t-42.5 103q0 60 42.5 102t102.5 42q59 0 102 -42zM921 1396q43 -42 43 -102q0 -61 -43 -103t-102 -42q-60 0 -102.5 42t-42.5 103q0 60 42.5 102t102.5 42q59 0 102 -42z" />
    <glyph glyph-name="afii10099" unicode="&#x452;" horiz-adv-x="1066" 
d="M744 660q0 90 -65 153.5t-154 63.5t-153 -63q-29 -28 -37 -45v-769h-208v1183h-104v207h104v210h208v-210h203v-207h-203v-215q67 116 220 116q156 0 274.5 -118.5t122.5 -296.5v-659q0 -138 -94.5 -233t-294.5 -95v208q113 0 148 34q33 33 33 97v639z" />
    <glyph glyph-name="afii10100" unicode="&#x453;" horiz-adv-x="773" 
d="M320 821v-821h-207v1029h580v-208h-373zM464 1407h252l-272 -279h-197z" />
    <glyph glyph-name="afii10101" unicode="&#x454;" horiz-adv-x="1288" 
d="M337 736h526v-209h-570q5 -137 105 -236q104 -104 251 -104q140 0 259 110h281q-106 -126 -137 -156q-166 -167 -403 -167q-234 0 -401 167t-167 401q0 237 167 403.5t401 166.5q237 0 403 -167q89 -90 151 -281h-218q-41 88 -83 131q-105 105 -253 105q-147 0 -252 -105
q-54 -55 -60 -59z" />
    <glyph glyph-name="afii10102" unicode="&#x455;" horiz-adv-x="882" 
d="M358 221q37 -36 88 -36t87.5 36t36.5 89q0 51 -36 87q-25 25 -107 77q-112 61 -159 108q-82 82 -82 197q0 116 82 198.5t198 82.5t193 -78q55 -55 70 -123l-201 -58q-7 25 -14 33q-18 18 -48 18t-51.5 -21.5t-21.5 -51.5t21 -51q19 -18 86 -61q124 -68 180 -124
q97 -98 97 -233q0 -138 -96.5 -235.5t-234.5 -97.5q-137 0 -234 98q-67 67 -88 167l206 44q9 -46 28 -65z" />
    <glyph glyph-name="afii10103" unicode="&#x456;" horiz-adv-x="541" 
d="M374 1029v-1029h-207v1029h207zM373 1410q43 -42 43 -103t-43 -103t-103 -42q-59 0 -102 42t-43 103t43 103t102 42q60 0 103 -42z" />
    <glyph glyph-name="afii10104" unicode="&#x457;" 
d="M378 1030v-1030h-207v1030h207zM188 1396q43 -42 43 -102q0 -61 -43 -103t-102 -42q-60 0 -102.5 42t-42.5 103q0 60 42.5 102t102.5 42q59 0 102 -42zM564 1396q43 -42 43 -102q0 -61 -43 -103t-102 -42q-60 0 -102.5 42t-42.5 103q0 60 42.5 102t102.5 42q59 0 102 -42
z" />
    <glyph glyph-name="afii10105" unicode="&#x458;" horiz-adv-x="561" 
d="M49 -10q112 12 112 70v969h207v-967q0 -253 -319 -278v206zM367 1410q43 -42 43 -103t-43 -103t-103 -42q-59 0 -102 42t-43 103t43 103t102 42q60 0 103 -42z" />
    <glyph glyph-name="afii10106" unicode="&#x459;" horiz-adv-x="1821" 
d="M1066 208h260v-3q129 7 172 43q36 29 36 80q0 53 -36 83q-43 35 -172 40v-1h-260v-242zM858 821h-481v-550q0 -251 -318 -277v205q112 13 112 70v760h893v-370l390 -2v-3q82 -4 182 -91q106 -92 106 -234v-1q0 -141 -106 -233q-100 -87 -182 -95h-596v821z" />
    <glyph glyph-name="afii10107" unicode="&#x45a;" horiz-adv-x="1751" 
d="M995 208h261v-2q128 6 172 42q36 29 36 80q0 53 -36 83q-43 35 -172 41v-2h-261v-242zM789 0v449h-480v-449h-207v1029h207v-372h480v372h206v-371h388v-4q83 -4 183 -91q105 -93 105 -234v-1q0 -140 -105 -233q-100 -88 -183 -95h-594z" />
    <glyph glyph-name="afii10108" unicode="&#x45b;" horiz-adv-x="1066" 
d="M127 1390v210h208v-210h203v-207h-203v-215q47 116 220 116q156 0 274.5 -118.5t122.5 -296.5v-669h-208v660q0 90 -65 153.5t-154 63.5t-153 -63q-29 -28 -37 -45v-769h-208v1183h-104v207h104z" />
    <glyph glyph-name="afii10109" unicode="&#x45c;" horiz-adv-x="947" 
d="M851 1029l-279 -344l388 -685h-246l-283 518l-110 -122v-396h-208v1029h208v-308l265 308h265zM597 1407h252l-272 -279h-197z" />
    <glyph glyph-name="uni045D" unicode="&#x45d;" horiz-adv-x="1078" 
d="M102 1029h207v-642l486 642h181v-1029h-206v651l-461 -608v-43h-207v1029zM735 1128h-197l-272 279h252z" />
    <glyph glyph-name="afii10110" unicode="&#x45e;" horiz-adv-x="1139" 
d="M403 -346h-219l274 575l-383 800h233l261 -563l261 563h232zM480 1413q11 -62 26 -77q26 -26 63 -26q36 0 62 27q15 14 25 76h190q-22 -123 -80 -182q-81 -82 -197 -82q-117 0 -198 82q-63 63 -80 182h189z" />
    <glyph glyph-name="afii10193" unicode="&#x45f;" horiz-adv-x="1097" 
d="M445 0h-343v1029h207v-821h480v821h206v-1029h-343v-345h-207v345z" />
    <glyph glyph-name="afii10050" unicode="&#x490;" horiz-adv-x="1012" 
d="M897 1394v-2h-562v-1392h-208v1600h622v250h207v-456h-59z" />
    <glyph glyph-name="afii10098" unicode="&#x491;" horiz-adv-x="806" 
d="M320 821v-821h-207v1029h430v250h207v-458h-430z" />
    <glyph glyph-name="Wgrave" unicode="&#x1e80;" horiz-adv-x="1686" 
d="M739 299v1301h207v-1301q10 -17 34 -42q65 -62 154 -62t154 63.5t65 152.5v1189h208v-1197q-4 -169 -125 -290q-125 -126 -302 -126q-176 0 -291 124q-116 -124 -292 -124q-177 0 -301 126q-122 120 -125 290v1197h207v-1189q0 -89 65 -152.5t154 -63.5q90 0 154 62
q25 25 34 42zM999 1699h-197l-272 279h252z" />
    <glyph glyph-name="wgrave" unicode="&#x1e81;" horiz-adv-x="1418" 
d="M604 305v724h207v-707q0 -55 37 -91.5t88 -36.5q123 0 123 153v682h208v-721q-5 -132 -97 -224q-97 -98 -234 -98q-138 0 -227 96q-91 -96 -228 -96q-138 0 -235 98q-92 92 -96 224v721h207v-682q0 -153 124 -153q51 0 88 36q31 31 35 75zM865 1128h-197l-272 279h252z
" />
    <glyph glyph-name="Wacute" unicode="&#x1e82;" horiz-adv-x="1686" 
d="M739 299v1301h207v-1301q10 -17 34 -42q65 -62 154 -62t154 63.5t65 152.5v1189h208v-1197q-4 -169 -125 -290q-125 -126 -302 -126q-176 0 -291 124q-116 -124 -292 -124q-177 0 -301 126q-122 120 -125 290v1197h207v-1189q0 -89 65 -152.5t154 -63.5q90 0 154 62
q25 25 34 42zM904 1978h252l-272 -279h-197z" />
    <glyph glyph-name="wacute" unicode="&#x1e83;" horiz-adv-x="1418" 
d="M604 305v724h207v-707q0 -55 37 -91.5t88 -36.5q123 0 123 153v682h208v-721q-5 -132 -97 -224q-97 -98 -234 -98q-138 0 -227 96q-91 -96 -228 -96q-138 0 -235 98q-92 92 -96 224v721h207v-682q0 -153 124 -153q51 0 88 36q31 31 35 75zM769 1407h252l-272 -279h-197z
" />
    <glyph glyph-name="Wdieresis" unicode="&#x1e84;" horiz-adv-x="1686" 
d="M739 299v1301h207v-1301q10 -17 34 -42q65 -62 154 -62t154 63.5t65 152.5v1189h208v-1197q-4 -169 -125 -290q-125 -126 -302 -126q-176 0 -291 124q-116 -124 -292 -124q-177 0 -301 126q-122 120 -125 290v1197h207v-1189q0 -89 65 -152.5t154 -63.5q90 0 154 62
q25 25 34 42zM757 1967q43 -42 43 -102q0 -61 -43 -103t-102 -42q-60 0 -102.5 42t-42.5 103q0 60 42.5 102t102.5 42q59 0 102 -42zM1133 1967q43 -42 43 -102q0 -61 -43 -103t-102 -42q-60 0 -102.5 42t-42.5 103q0 60 42.5 102t102.5 42q59 0 102 -42z" />
    <glyph glyph-name="wdieresis" unicode="&#x1e85;" horiz-adv-x="1418" 
d="M604 305v724h207v-707q0 -55 37 -91.5t88 -36.5q123 0 123 153v682h208v-721q-5 -132 -97 -224q-97 -98 -234 -98q-138 0 -227 96q-91 -96 -228 -96q-138 0 -235 98q-92 92 -96 224v721h207v-682q0 -153 124 -153q51 0 88 36q31 31 35 75zM623 1396q43 -42 43 -102
q0 -61 -43 -103t-102 -42q-60 0 -102.5 42t-42.5 103q0 60 42.5 102t102.5 42q59 0 102 -42zM999 1396q43 -42 43 -102q0 -61 -43 -103t-102 -42q-60 0 -102.5 42t-42.5 103q0 60 42.5 102t102.5 42q59 0 102 -42z" />
    <glyph glyph-name="Ygrave" unicode="&#x1ef2;" horiz-adv-x="1414" 
d="M603 642l-553 958h238l418 -724l419 724h239l-554 -958v-642h-207v642zM863 1699h-197l-272 279h252z" />
    <glyph glyph-name="ygrave" unicode="&#x1ef3;" horiz-adv-x="1139" 
d="M403 -346h-219l274 575l-383 800h233l261 -563l261 563h232zM725 1128h-197l-272 279h252z" />
    <glyph glyph-name="endash" unicode="&#x2013;" horiz-adv-x="935" 
d="M50 712h835v-207h-835v207z" />
    <glyph glyph-name="emdash" unicode="&#x2014;" horiz-adv-x="1522" 
d="M50 712h1422v-207h-1422v207z" />
    <glyph glyph-name="afii00208" unicode="&#x2015;" horiz-adv-x="3034" 
d="M-75 712h2071v-207h-2071v207z" />
    <glyph glyph-name="underscoredbl" unicode="&#x2017;" horiz-adv-x="1096" 
d="M25 -111h1046v-207h-1046v207zM25 97h1046v-207h-1046v207z" />
    <glyph glyph-name="quoteleft" unicode="&#x2018;" horiz-adv-x="410" 
d="M298 1432q42 -42 42 -103q0 -60 -42.5 -102t-102.5 -42q-59 0 -102 42t-43 102q0 32 12 62l108 219h189z" />
    <glyph glyph-name="quoteright" unicode="&#x2019;" horiz-adv-x="410" 
d="M111 1363q-42 42 -42 103q0 60 42.5 102t102.5 42q59 0 102 -42t43 -102q0 -32 -12 -62l-108 -219h-189z" />
    <glyph glyph-name="quotesinglbase" unicode="&#x201a;" horiz-adv-x="410" 
d="M111 23q-42 42 -42 103q0 60 42.5 102t102.5 42q59 0 102 -42t43 -102q0 -32 -12 -62l-108 -219h-189z" />
    <glyph glyph-name="quotereversed" unicode="&#x201b;" horiz-adv-x="410" 
d="M359 1185h-189l-108 219q-12 30 -12 62q0 60 43 102t102 42q60 0 102.5 -42t42.5 -102q0 -61 -42 -103z" />
    <glyph glyph-name="quotedblleft" unicode="&#x201c;" horiz-adv-x="744" 
d="M299 1432q42 -42 42 -103q0 -60 -42.5 -102t-102.5 -42q-59 0 -102 42t-43 102q0 32 12 62l108 219h189zM632 1432q42 -42 42 -103q0 -60 -42.5 -102t-102.5 -42q-59 0 -102 42t-43 102q0 32 12 62l108 219h189z" />
    <glyph glyph-name="quotedblright" unicode="&#x201d;" horiz-adv-x="744" 
d="M445 1363q-42 42 -42 103q0 60 42.5 102t102.5 42q59 0 102 -42t43 -102q0 -32 -12 -62l-108 -219h-189zM112 1363q-42 42 -42 103q0 60 42.5 102t102.5 42q59 0 102 -42t43 -102q0 -32 -12 -62l-108 -219h-189z" />
    <glyph glyph-name="quotedblbase" unicode="&#x201e;" horiz-adv-x="743" 
d="M111 -34q-42 42 -42 103q0 60 42.5 102t102.5 42q59 0 102 -42t43 -102q0 -32 -12 -62l-108 -219h-189zM444 -34q-42 42 -42 103q0 60 42.5 102t102.5 42q59 0 102 -42t43 -102q0 -32 -12 -62l-108 -219h-189z" />
    <glyph glyph-name="dagger" unicode="&#x2020;" horiz-adv-x="839" 
d="M331 1596v201h177v-201h231v-177h-231v-1259h-177v1259h-231v177h231z" />
    <glyph glyph-name="daggerdbl" unicode="&#x2021;" horiz-adv-x="839" 
d="M331 1419h-231v177h231v201h177v-201h231v-177h-231v-323h231v-178h-231v-758h-177v758h-231v178h231v323z" />
    <glyph glyph-name="bullet" unicode="&#x2022;" horiz-adv-x="860" 
d="M573 891q60 -59 60 -143q0 -85 -60 -143.5t-142 -58.5q-84 0 -144 58.5t-60 143.5q0 84 60 143t144 59q82 0 142 -59z" />
    <glyph glyph-name="ellipsis" unicode="&#x2026;" horiz-adv-x="2048" 
d="M347.5 235q42.5 -42 42.5 -102q0 -62 -42.5 -104t-102.5 -42q-59 0 -102 42t-43 104q0 60 43 102t102 42q60 0 102.5 -42zM1030.5 235q42.5 -42 42.5 -102q0 -62 -42.5 -104t-102.5 -42q-59 0 -102 42t-43 104q0 60 43 102t102 42q60 0 102.5 -42zM1713.5 235
q42.5 -42 42.5 -102q0 -62 -42.5 -104t-102.5 -42q-59 0 -102 42t-43 104q0 60 43 102t102 42q60 0 102.5 -42z" />
    <glyph glyph-name="perthousand" unicode="&#x2030;" horiz-adv-x="1771" 
d="M355 1040q-29 0 -49.5 -20.5t-20.5 -49.5q0 -30 20.5 -50.5t49.5 -20.5t50 20.5t21 50.5q0 29 -21 49.5t-50 20.5zM1416 487q-30 0 -50.5 -20.5t-20.5 -49.5q0 -30 20.5 -50.5t50.5 -20.5q28 0 49 20.5t21 50.5q0 29 -21 49.5t-49 20.5zM908 487q-29 0 -49.5 -20.5
t-20.5 -49.5q0 -30 20.5 -50.5t49.5 -20.5t50 20.5t21 50.5q0 29 -21 49.5t-50 20.5zM1176 1290l-918 -1311l-170 118l917 1310zM1162 306q-20 -46 -58 -84q-81 -81 -196 -81q-114 0 -194.5 80.5t-80.5 195.5q0 114 80.5 194.5t194.5 80.5q115 0 196 -80q38 -39 58 -85
q20 46 59 85q80 80 195 80q114 0 194.5 -80.5t80.5 -194.5q0 -115 -80.5 -195.5t-194.5 -80.5q-115 0 -195 81q-39 38 -59 84zM630 970q0 -114 -80.5 -194.5t-194.5 -80.5t-194.5 80.5t-80.5 194.5t80.5 194.5t194.5 80.5t194.5 -80.5t80.5 -194.5z" />
    <glyph glyph-name="minute" unicode="&#x2032;" horiz-adv-x="458" 
d="M125 920v677h207v-677h-207z" />
    <glyph glyph-name="second" unicode="&#x2033;" horiz-adv-x="624" 
d="M55 920v677h207v-677h-207zM361 920v677h207v-677h-207z" />
    <glyph glyph-name="guilsinglleft" unicode="&#x2039;" horiz-adv-x="744" 
d="M100 489l543 581v-278l-283 -303l283 -304v-280z" />
    <glyph glyph-name="guilsinglright" unicode="&#x203a;" horiz-adv-x="744" 
d="M100 -95v280l283 304l-283 303v278l543 -581z" />
    <glyph glyph-name="exclamdbl" unicode="&#x203c;" horiz-adv-x="1082" 
d="M372.5 235q42.5 -42 42.5 -102q0 -62 -42.5 -104t-102.5 -42q-59 0 -102 42t-43 104q0 60 43 102t102 42q60 0 102.5 -42zM372 1600v-1145h-207v1145h207zM913.5 235q42.5 -42 42.5 -102q0 -62 -42.5 -104t-102.5 -42q-59 0 -102 42t-43 104q0 60 43 102t102 42
q60 0 102.5 -42zM913 1600v-1145h-207v1145h207z" />
    <glyph glyph-name="uni203E" unicode="&#x203e;" horiz-adv-x="1096" 
d="M25 1794h1046v-208h-1046v208z" />
    <glyph glyph-name="fraction" unicode="&#x2044;" horiz-adv-x="185" 
d="M686 1396l-916 -1310l-171 118l918 1311z" />
    <glyph glyph-name="fraction" unicode="&#x2215;" horiz-adv-x="185" 
d="M686 1396l-916 -1310l-171 118l918 1311z" />
    <glyph glyph-name="uni207F" unicode="&#x207f;" horiz-adv-x="1136" 
d="M357 1268v-752h-207v1030h207v-111q66 165 242 165q146 0 264.5 -118.5t121.5 -297.5v-668h-207v660q0 90 -65 153.5t-154 63.5t-154 -63q-37 -36 -48 -62z" />
    <glyph glyph-name="franc" unicode="&#x20a3;" horiz-adv-x="1069" 
d="M199 556v1044h770v-207h-562v-489h562v-207h-562v-141h265v-207h-265v-349h-208v349h-149v207h149z" />
    <glyph glyph-name="lira" unicode="&#x20a4;" horiz-adv-x="1214" 
d="M575 509q0 -227 -122 -352q81 52 178 52q26 0 54 -4q128 -18 202 -18q66 0 188 31l39 -204q-139 -34 -227 -34q-89 0 -181 21q-84 18 -146 18q-52 0 -87 -12q-92 -33 -222 -99l-151 179q156 138 182 170q85 101 87 254h-219v206h173q-1 3 -41 82q-109 176 -123 340
q-2 20 -2 41q0 150 99 269q111 132 288 149q20 1 39 1q150 0 270 -99q133 -114 149 -287q4 -24 4 -47q0 -71 -48 -182l-193 65q31 89 31 126q0 11 -1 21q-8 87 -76 144q-60 50 -135 50q-11 0 -21 -1q-88 -7 -145 -75q-50 -60 -50 -134q0 -12 1 -23q8 -92 64 -211
q83 -132 107 -229h194v-206z" />
    <glyph glyph-name="peseta" unicode="&#x20a7;" horiz-adv-x="2023" 
d="M336 1392v-672h170q125 0 213.5 98.5t88.5 238.5q0 139 -88.5 237t-213.5 98h-170zM949 822q-35 -81 -97 -150q-143 -160 -346 -160h-170v-512h-186v1600h409q173 -26 293 -159q143 -160 143 -384q0 -14 -1 -28h42v386h207v-386h185v-34q76 65 179 65q116 0 193 -78
q55 -55 70 -123l-201 -58q-7 25 -14 33q-18 18 -48 18t-51.5 -21.5t-21.5 -51.5t21 -51q19 -18 86 -61q124 -68 180 -124q97 -98 97 -233q0 -138 -96.5 -235.5t-234.5 -97.5q-137 0 -234 98q-67 67 -88 167l206 44q9 -46 28 -65q37 -36 88 -36t87.5 36t36.5 89q0 51 -36 87
q-25 25 -107 77q-112 61 -159 108q-82 82 -82 197q0 22 3 43h-87v-822h-207v822h-87z" />
    <glyph glyph-name="Euro" unicode="&#x20ac;" horiz-adv-x="1507" 
d="M269 971v61q0 235 166.5 401.5t401.5 166.5q236 0 445 -211l-149 -149q-148 147 -296 147t-252.5 -104t-104.5 -251v-61h620l-42 -188h-578v-56h581l-41 -187l-540 3q0 -148 104.5 -252t252.5 -104t252 105q65 65 103 189h215q-54 -225 -168 -340q-166 -166 -402 -166
q-235 0 -401.5 166.5t-166.5 401.5v-3h-169l41 187h128v56h-130l41 188h89z" />
    <glyph glyph-name="afii61248" unicode="&#x2105;" horiz-adv-x="1962" 
d="M756 1034l184 -66q-69 -96 -95 -123q-130 -129 -313 -129t-312.5 129.5t-129.5 312.5t129.5 312.5t312.5 129.5t313 -130q26 -26 96 -120l-185 -68q-37 44 -47 55q-73 72 -177 72t-177.5 -73.5t-73.5 -177.5t73.5 -178t177.5 -74t178 74q10 10 46 54zM1535 1396
l-916 -1310l-171 118l918 1311zM1430 865q183 0 312.5 -129.5t129.5 -312.5t-129.5 -312.5t-312.5 -129.5t-312.5 129.5t-129.5 312.5t129.5 312.5t312.5 129.5zM1251.5 601q-73.5 -74 -73.5 -178t73.5 -177.5t178.5 -73.5q104 0 178 73.5t74 177.5t-74 178t-178 74
q-105 0 -178.5 -74z" />
    <glyph glyph-name="afii61352" unicode="&#x2116;" horiz-adv-x="2162" 
d="M1956 1447h157v-707h-779v157h622v550zM1557 1168q66 3 99 35q35 35 35 85t-35 85q-33 32 -99 35q-67 -3 -99 -35q-35 -35 -35 -85t35 -85q32 -32 99 -35zM1543 972q-132 0 -224 92.5t-92 223.5t92 223.5t224 92.5h27q132 0 224 -92.5t92 -223.5t-92 -223.5t-224 -92.5
h-27zM125 1600h189l660 -1142v1142h208v-1600h-181l-669 1156v-1156h-207v1600z" />
    <glyph glyph-name="trademark" unicode="&#x2122;" horiz-adv-x="1255" 
d="M486 1428h-91v-557h-177v557h-168v172h584l212 -325l212 325h147v-729h-176v365l-183 -282l-184 283v-366h-176v557z" />
    <glyph glyph-name="Omega" unicode="&#x2126;" horiz-adv-x="1723" 
d="M476 207q-51 32 -124 101q-204 190 -204 470q0 371 193 596.5t513 225.5h15q319 0 512.5 -225.5t193.5 -596.5q0 -280 -204 -470q-73 -69 -124 -101h234v-207h-518v194q130 53 267 198.5t137 385.5q0 292 -137.5 460t-366.5 168h-4q-229 0 -366.5 -168t-137.5 -460
q0 -240 137.5 -385.5t267.5 -198.5v-194h-519v207h235z" />
    <glyph glyph-name="arrowleft" unicode="&#x2190;" horiz-adv-x="1834" 
d="M420 1101v-205h1301v-208h-1301v-207l-307 311z" />
    <glyph glyph-name="arrowup" unicode="&#x2191;" horiz-adv-x="1300" 
d="M960 1304h-207v-1301h-208v1301h-205l309 308z" />
    <glyph glyph-name="arrowright" unicode="&#x2192;" horiz-adv-x="1834" 
d="M1721 792l-307 -311v207h-1301v208h1301v205z" />
    <glyph glyph-name="arrowdown" unicode="&#x2193;" horiz-adv-x="1300" 
d="M649 -22l-309 307h205v1301h208v-1301h207z" />
    <glyph glyph-name="arrowboth" unicode="&#x2194;" horiz-adv-x="1861" 
d="M1439 896v205l308 -309l-308 -311v207h-1019v-207l-307 311l307 309v-205h1019z" />
    <glyph glyph-name="arrowupdn" unicode="&#x2195;" horiz-adv-x="2087" 
d="M1149 285h205l-309 -307l-311 307h207v1019h-207l311 308l309 -308h-205v-1019z" />
    <glyph glyph-name="arrowupdnbse" unicode="&#x21a8;" horiz-adv-x="2087" 
d="M1042 1608h-218v208h443v-208h-217l305 -304h-205v-1019h205l-303 -301h215v-207h-443v207h216l-305 301h207v1019h-207z" />
    <glyph glyph-name="partialdiff" unicode="&#x2202;" horiz-adv-x="1046" 
d="M761 696q-382 -48 -491 -323q-9 -37 -9 -68q0 -101 157 -102q249 26 343 493zM783 900q3 37 3 111q0 352 -144 379q-33 5 -65 5q-149 0 -310 -234l-104 208q180 217 406 217q72 0 152 -19q269 -69 269 -532q0 -127 -21 -287q-114 -728 -551 -738q-361 0 -361 290
q0 53 15 119q130 410 711 481z" />
    <glyph glyph-name="Delta" unicode="&#x2206;" horiz-adv-x="1326" 
d="M55 1h-89l583 1599h188l589 -1600h-1271v1zM1029 208l-386 1045l-382 -1045h768z" />
    <glyph glyph-name="product" unicode="&#x220f;" horiz-adv-x="1364" 
d="M314 1392v-1736h-208v1944h1151v-1944h-208v1736h-735z" />
    <glyph glyph-name="summation" unicode="&#x2211;" horiz-adv-x="1265" 
d="M1162 1600v-208h-785l357 -764l-357 -764h785v-208h-1105l446 972l-446 972h1105z" />
    <glyph glyph-name="minus" unicode="&#x2212;" horiz-adv-x="1112" 
d="M125 712h862v-207h-862v207z" />
    <glyph glyph-name="radical" unicode="&#x221a;" horiz-adv-x="1604" 
d="M878 453l505 1276h221l-719 -1863l-621 782l-89 -40l-118 147l382 215z" />
    <glyph glyph-name="infinity" unicode="&#x221e;" horiz-adv-x="1253" 
d="M980 814q0 64 -45 109t-109 45q-66 0 -116 -45q-51 -47 -68 -133q17 -87 68 -134q50 -45 116 -45q64 0 109 45t45 158zM1069 522.5q-101 -100.5 -243 -100.5q-212 0 -296 192q-76 -100 -184 -100q-109 0 -187 77t-78 209q0 111 77.5 189t187.5 78q109 0 184 -102
q94 192 296 192q142 0 243 -100.5t101 -242.5q0 -191 -101 -291.5zM270 791q0 -43 22 -65t54 -22t59 25t38 61q-11 35 -38 60.5t-59 25.5t-54 -22t-22 -63z" />
    <glyph glyph-name="integral" unicode="&#x222b;" horiz-adv-x="649" 
d="M427 -12q-12 -323 -391 -323v202q178 0 185 122v1397q25 321 391 321v-189q-171 -5 -185 -136v-1394z" />
    <glyph glyph-name="approxequal" unicode="&#x2248;" horiz-adv-x="1328" 
d="M272 823l-147 23q5 111 27 166q54 129 183 172q33 10 70 10q114 0 288 -99q160 -92 221 -92h9q41 12 58 55q9 24 9 121l213 -33q-9 -111 -30 -165q-40 -95 -120 -144l150 -23q-9 -111 -30 -165q-54 -129 -182 -173q-33 -10 -71 -10q-114 0 -288 100q-160 92 -221 92
q-6 0 -8 -1q-41 -12 -58 -55q-10 -25 -12 -120l-208 32q5 111 27 166q40 95 120 143zM990 809q-33 -11 -70 -11q-114 0 -288 100q-160 92 -221 92q-6 0 -8 -1q-41 -12 -58 -55q-8 -20 -11 -82h1q33 10 70 10q114 0 288 -99q160 -92 221 -92h9q41 12 58 55q7 19 9 83z" />
    <glyph glyph-name="notequal" unicode="&#x2260;" horiz-adv-x="1267" 
d="M542 652h-340v208h528l162 179h263l-162 -179h71v-208h-260l-79 -88h339v-207h-527l-163 -180h-262l163 180h-73v207h260z" />
    <glyph glyph-name="equivalence" unicode="&#x2261;" horiz-adv-x="1112" 
d="M125 712h862v-207h-862v207zM125 426h862v-207h-862v207zM125 988h862v-207h-862v207z" />
    <glyph glyph-name="lessequal" unicode="&#x2264;" horiz-adv-x="1504" 
d="M1126 208l-1026 374l1303 474v-221l-697 -253l697 -254v-328h-1138v208h861z" />
    <glyph glyph-name="greaterequal" unicode="&#x2265;" horiz-adv-x="1504" 
d="M1238 208v-208h-1138v328l697 254l-697 253v221l1303 -474l-1026 -374h861z" />
    <glyph glyph-name="integraltp" unicode="&#x2320;" horiz-adv-x="735" 
d="M434 -334h-207v1720q26 321 391 321l2 -189q-172 -5 -186 -136v-1716z" />
    <glyph glyph-name="integralbt" unicode="&#x2321;" horiz-adv-x="733" 
d="M300 1707h206v-1719q-25 -322 -393 -322v189q173 6 187 137v1715z" />
    <glyph glyph-name="uniEEC9" unicode="&#xeec9;" horiz-adv-x="1045" 
d="M852 1309q43 -42 43 -102q0 -61 -43 -103t-102 -42q-60 0 -102.5 42t-42.5 103q0 60 42.5 102t102.5 42q59 0 102 -42zM646 823h-257v-823h-207v823h-92v207h92v185q7 128 97 219q95 88 218 88q62 0 188 -43l-68 -196q-88 38 -112 38q-41 0 -81 -36q-33 -32 -35 -78v-177
h464v-968q0 -251 -319 -277v206q112 13 112 70v762z" />
    <glyph glyph-name="uniEECA" unicode="&#xeeca;" horiz-adv-x="1170" 
d="M835 890q115 157 285 164v-214q-114 -6 -181 -73q-100 -99 -104 -238v-529h-207v823h-239v-823h-207v823h-92v207h92v185q7 128 97 219q95 88 218 88q62 0 188 -43l-68 -196q-88 38 -112 38q-41 0 -81 -36q-33 -32 -35 -78v-177h446v-140z" />
    <glyph glyph-name="uniEECB" unicode="&#xeecb;" horiz-adv-x="999" 
d="M319 1030h239v287q-12 4 -77 4q-87 0 -127 -36q-33 -32 -35 -78v-177zM112 1030v185q7 128 97 219q95 88 264 88q150 0 292 -76v-416h184v-207h-184v-823h-207v823h-239v-823h-207v823h-92v207h92z" />
    <glyph glyph-name="uniEECD" unicode="&#xeecd;" horiz-adv-x="1583" 
d="M621 823h-232v-823h-207v823h-92v207h92v185q7 128 97 219q95 88 218 88q62 0 188 -43l-68 -196q-88 38 -112 38q-41 0 -81 -36q-33 -32 -35 -78v-177h365l261 -563l261 563h231l-554 -1162v2l-103 -215h-219l274 574z" />
    <glyph glyph-name="uniEECE" unicode="&#xeece;" horiz-adv-x="1721" 
d="M389 823v-823h-207v823h-92v207h92v185q7 128 97 219q95 88 218 88q62 0 188 -43l-68 -196q-88 38 -112 38q-41 0 -81 -36q-33 -32 -35 -78v-177h275v185q7 128 98 219q94 88 217 88q62 0 188 -43l-68 -196q-88 38 -111 38q-42 0 -81 -36q-33 -32 -35 -78v-177h367v386
h207v-386h185v-207h-185v-823h-207v823h-367v-823h-208v823h-275z" />
    <glyph glyph-name="uniEECF" unicode="&#xeecf;" horiz-adv-x="2065" 
d="M389 823v-823h-207v823h-92v207h92v185q7 128 97 219q95 88 218 88q62 0 188 -43l-68 -196q-88 38 -112 38q-41 0 -81 -36q-33 -32 -35 -78v-177h275v185q7 128 98 219q94 88 217 88q62 0 188 -43l-68 -196q-88 38 -111 38q-42 0 -81 -36q-33 -32 -35 -78v-177h365
l261 -563l260 563h232l-555 -1162v2l-103 -215h-219l274 574l-284 594h-231v-823h-208v823h-275z" />
    <glyph glyph-name="uniEED0" unicode="&#xeed0;" horiz-adv-x="2199" 
d="M389 823v-823h-207v823h-92v207h92v185q7 128 97 219q95 88 218 88q62 0 188 -43l-68 -196q-88 38 -112 38q-41 0 -81 -36q-33 -32 -35 -78v-177h368v386h207v-386h408l261 -563l261 563h231l-554 -1162v2l-104 -215h-218l274 574l-284 594h-275v-823h-207v823h-368z" />
    <glyph glyph-name="uniEED9" unicode="&#xeed9;" horiz-adv-x="1305" 
d="M970 938q116 109 285 116v-214q-113 -6 -180 -73q-101 -99 -105 -238v-529h-207v823h-281v-823h-208v823h-184v207h184v386h208v-386h488v-92z" />
    <glyph glyph-name="uniEEDA" unicode="&#xeeda;" horiz-adv-x="1374" 
d="M482 823v-823h-208v823h-184v207h184v386h208v-386h410v386h208v-386h184v-207h-184v-823h-208v823h-410z" />
    <glyph glyph-name="uniEEDB" unicode="&#xeedb;" horiz-adv-x="1718" 
d="M757 823h-275v-823h-208v823h-184v207h184v386h208v-386h433v-54l236 -509l261 563h231l-554 -1162v2l-104 -215h-219l274 574z" />
    <glyph glyph-name="uniEEDC" unicode="&#xeedc;" horiz-adv-x="1693" 
d="M482 823v-823h-208v823h-184v207h184v386h208v-386h1070l-475 -821h464v-209h-823l474 823h-710z" />
    <glyph glyph-name="uniF001" unicode="&#xf001;" horiz-adv-x="1020" 
d="M389 0h-207v823h-92v207h92v185q7 128 97 219q95 88 218 88q62 0 188 -43l-68 -196q-88 38 -112 38q-41 0 -81 -36q-33 -32 -35 -78v-1207zM853 1030v-1030h-207v1030h207zM852 1309q43 -42 43 -102q0 -61 -43 -103t-102 -42q-60 0 -102.5 42t-42.5 103q0 60 42.5 102
t102.5 42q59 0 102 -42z" />
    <glyph glyph-name="uniF002" unicode="&#xf002;" horiz-adv-x="985" 
d="M628 1317q-12 4 -77 4q-87 0 -127 -36q-33 -32 -35 -78v-1207h-207v823h-92v207h92v185q7 128 97 219q95 88 264 88q150 0 292 -76v-1446h-207v1317z" />
    <glyph glyph-name="uniFB00" unicode="&#xfb00;" horiz-adv-x="1108" 
d="M389 823v-823h-207v823h-92v207h92v185q7 128 97 219q95 88 218 88q62 0 188 -43l-68 -196q-88 38 -112 38q-41 0 -81 -36q-33 -32 -35 -78v-177h275v185q7 128 98 219q94 88 217 88q62 0 188 -43l-68 -196q-88 38 -111 38q-42 0 -81 -36q-33 -32 -35 -78v-177h184v-207
h-184v-823h-208v823h-275z" />
    <glyph glyph-name="uniFB01" unicode="&#xfb01;" horiz-adv-x="1020" 
d="M852 1309q43 -42 43 -102q0 -61 -43 -103t-102 -42q-60 0 -102.5 42t-42.5 103q0 60 42.5 102t102.5 42q59 0 102 -42zM646 823h-257v-823h-207v823h-92v207h92v185q7 128 97 219q95 88 218 88q62 0 188 -43l-68 -196q-88 38 -112 38q-41 0 -81 -36q-33 -32 -35 -78v-177
h464v-1030h-207v823z" />
    <glyph glyph-name="uniFB02" unicode="&#xfb02;" horiz-adv-x="985" 
d="M628 1317q-12 4 -77 4q-87 0 -127 -36q-33 -32 -35 -78v-177h185v-207h-185v-823h-207v823h-92v207h92v185q7 128 97 219q95 88 264 88q150 0 292 -76v-1446h-207v1317z" />
    <glyph glyph-name="uniFB03" unicode="&#xfb03;" horiz-adv-x="1502" 
d="M1334 1309q43 -42 43 -102q0 -61 -43 -103t-102 -42q-60 0 -102.5 42t-42.5 103q0 60 42.5 102t102.5 42q59 0 102 -42zM389 823v-823h-207v823h-92v207h92v185q7 128 97 219q95 88 218 88q62 0 188 -43l-68 -196q-88 38 -112 38q-41 0 -81 -36q-33 -32 -35 -78v-177h275
v185q7 128 98 219q94 88 217 88q62 0 188 -43l-68 -196q-88 38 -111 38q-42 0 -81 -36q-33 -32 -35 -78v-177h464v-1030h-208v823h-256v-823h-208v823h-275z" />
    <glyph glyph-name="uniFB04" unicode="&#xfb04;" horiz-adv-x="1467" 
d="M389 823v-823h-207v823h-92v207h92v185q7 128 97 219q95 88 218 88q62 0 188 -43l-68 -196q-88 38 -112 38q-41 0 -81 -36q-33 -32 -35 -78v-177h275v185q7 128 98 219q94 88 263 88q151 0 292 -76v-1446h-207v1317q-12 4 -76 4q-88 0 -127 -36q-33 -32 -35 -78v-177h184
v-207h-184v-823h-208v823h-275z" />
    <glyph glyph-name="uniFB05" unicode="&#xfb05;" horiz-adv-x="999" 
d="M558 823h-185v207h185v287q-12 4 -77 4q-87 0 -127 -36q-33 -32 -35 -78v-1207h-207v823h-92v207h92v185q7 128 97 219q95 88 264 88q150 0 292 -76v-416h184v-207h-184v-823h-207v823z" />
    </font>
</defs>
</svg>
